<?xml version="1.0" standalone="no"?>
<!DOCTYPE svg PUBLIC "-//W3C//DTD SVG 1.1//EN" "http://www.w3.org/Graphics/SVG/1.1/DTD/svg11.dtd" >
<svg xmlns="http://www.w3.org/2000/svg">
<metadata>
This is a custom SVG webfont generated by Font Squirrel.
Copyright   : Digitized data copyright  2006 Google Corporation
Foundry     : Ascender Corporation
Foundry URL : httpwwwascendercorpcom
</metadata>
<defs>
<font id="DroidSerifRegular" horiz-adv-x="1145" >
<font-face units-per-em="2048" ascent="1638" descent="-410" />
<missing-glyph horiz-adv-x="532" />
<glyph unicode=" "  horiz-adv-x="532" />
<glyph unicode="&#x09;" horiz-adv-x="532" />
<glyph unicode="&#xa0;" horiz-adv-x="532" />
<glyph unicode="!" horiz-adv-x="682" d="M211 125q0 40 10 66.5t27.5 42.5t41 23t50.5 7q26 0 49.5 -7t41 -23t28 -42.5t10.5 -66.5q0 -39 -10.5 -66t-28 -43t-41 -23t-49.5 -7q-27 0 -50.5 7t-41 23t-27.5 43t-10 66zM221 1462h238l-72 -1050h-94z" />
<glyph unicode="&#x22;" horiz-adv-x="836" d="M117 1462h217l-62 -481h-94zM502 1462h217l-62 -481h-94z" />
<glyph unicode="#" d="M82 416v121h190l78 401h-244v121h267l73 403h125l-75 -403h284l76 403h123l-76 -403h160v-121h-182l-76 -401h233v-121h-258l-78 -416h-122l77 416h-284l-78 -416h-123l78 416h-168zM397 537h285l76 401h-285z" />
<glyph unicode="$" d="M135 166v315h86q0 -57 21.5 -110.5t61 -96t94 -70t120.5 -32.5v506q-96 43 -162.5 85t-107.5 88.5t-59.5 100.5t-18.5 121q0 69 24.5 125t69.5 97.5t109.5 67t144.5 34.5v159h103v-155q92 -2 156.5 -20.5t105.5 -49t59.5 -71.5t18.5 -89q0 -66 -44 -99.5t-118 -33.5 q0 45 -7.5 90.5t-27 83t-54.5 63.5t-89 32v-478q92 -40 163 -80t119 -86.5t73 -103t25 -129.5q0 -154 -99 -239.5t-281 -104.5v-248h-103v244q-51 0 -103 4.5t-101.5 15t-95 26.5t-83.5 38zM354 1090q0 -43 10.5 -75.5t31.5 -57.5t51.5 -45t70.5 -38v429q-40 -9 -71 -28.5 t-51.5 -47t-31 -62.5t-10.5 -75zM621 178q92 16 142 74.5t50 146.5q0 41 -10 73.5t-33 60.5t-59.5 52t-89.5 48v-455z" />
<glyph unicode="%" horiz-adv-x="1835" d="M92 1030q0 103 19.5 186.5t60.5 143t105 91.5t153 32q84 0 146.5 -32t104 -91.5t62.5 -143t21 -186.5t-21 -187t-63 -144t-105 -93t-147 -33q-88 0 -151.5 33t-104.5 93t-60.5 144t-19.5 187zM276 1030q0 -88 8 -157.5t26 -117.5t47 -73t71 -25t71 25t46.5 73t25 117.5 t7.5 157.5q0 87 -7.5 155t-25 115.5t-45.5 72t-70 24.5t-71.5 -24.5t-48 -72t-26.5 -115.5t-8 -155zM481 0l731 1462h134l-730 -1462h-135zM1071 436q0 103 19.5 186.5t60.5 143t105 91.5t153 32q84 0 146.5 -32t104 -91.5t62.5 -143t21 -186.5t-21 -187t-63 -144 t-105 -92.5t-147 -32.5q-88 0 -152 32.5t-104.5 92.5t-60 144t-19.5 187zM1255 436q0 -88 8 -157.5t26 -117.5t47 -73t71 -25t71 25t46 73t24.5 117.5t7.5 157.5q0 87 -7.5 155t-24.5 115.5t-45 72t-70 24.5t-71.5 -24.5t-48 -72t-26.5 -115.5t-8 -155z" />
<glyph unicode="&#x26;" horiz-adv-x="1520" d="M74 410q0 87 23.5 151.5t66 113.5t103 86t134.5 68q-39 46 -68.5 88.5t-49 84.5t-29.5 86t-10 94q0 68 22 123t69 95t120.5 61.5t175.5 21.5q98 0 167 -23t112.5 -63t63 -93t19.5 -112q0 -66 -19 -117t-60.5 -94t-107 -81.5t-159.5 -78.5l373 -395q14 46 23 93.5t14.5 93 t7.5 89t2 80.5v80h369v-86h-19q-34 0 -67 -4t-61.5 -18.5t-51 -42t-35.5 -74.5q-18 -66 -41.5 -143t-58.5 -154l190 -203q15 -15 31 -25t37.5 -16t51 -8t71.5 -2h18v-86h-327l-170 180q-37 -42 -81.5 -78.5t-98.5 -63.5t-119.5 -42.5t-143.5 -15.5q-123 0 -214.5 31 t-152 87.5t-90.5 135.5t-30 176zM274 403q0 -75 22 -132.5t62.5 -97t96.5 -59.5t125 -20q60 0 111.5 12.5t94.5 34.5t79 52.5t65 66.5l-453 485q-47 -26 -84.5 -57.5t-64 -73t-40.5 -93.5t-14 -118zM434 1188q0 -39 8 -73t25.5 -67.5t44.5 -69.5t66 -79q60 26 104.5 55 t73.5 63.5t43 76.5t14 96q0 41 -10 76t-32.5 60.5t-59 40.5t-88.5 15q-91 0 -140 -53t-49 -141z" />
<glyph unicode="'" horiz-adv-x="451" d="M117 1462h217l-62 -481h-94z" />
<glyph unicode="(" horiz-adv-x="709" d="M117 649q0 185 29 328.5t92.5 253.5t163.5 189.5t241 135.5v-92q-105 -64 -167.5 -153.5t-94.5 -195.5t-41.5 -225t-9.5 -241t9.5 -241t41.5 -225.5t94.5 -196.5t167.5 -154v-94q-141 56 -241 136t-163.5 190.5t-92.5 255t-29 329.5z" />
<glyph unicode=")" horiz-adv-x="709" d="M66 -168q105 64 167 154t94.5 196.5t42 225.5t9.5 241t-9.5 241t-42 225t-94.5 195.5t-167 153.5v92q141 -56 241 -135.5t163 -189.5t92.5 -253.5t29.5 -328.5t-29.5 -329.5t-92.5 -255t-163 -190.5t-241 -136v94z" />
<glyph unicode="*" horiz-adv-x="1024" d="M84 1063l344 102l-344 103l72 162l315 -199l-53 325h178l-57 -323l317 192l72 -159l-346 -101l346 -100l-72 -158l-317 191l57 -324h-178l51 324l-313 -195z" />
<glyph unicode="+" d="M133 672v121h377v378h123v-378h379v-121h-379v-379h-123v379h-377z" />
<glyph unicode="," horiz-adv-x="512" d="M61 -229q101 32 148 78t47 106q0 20 -11 33.5t-28 24t-36 20.5t-36 24t-28 34.5t-11 51.5q0 59 38.5 90t95.5 31q32 0 60 -11.5t50 -34t34.5 -56t12.5 -76.5q0 -65 -18 -126t-58.5 -113t-104 -93.5t-155.5 -68.5v86z" />
<glyph unicode="-" horiz-adv-x="635" d="M51 481v154h533v-154h-533z" />
<glyph unicode="." horiz-adv-x="586" d="M164 125q0 40 10 66.5t27.5 42.5t41 23t50.5 7q26 0 49.5 -7t41 -23t28 -42.5t10.5 -66.5q0 -39 -10.5 -66t-28 -43t-41 -23t-49.5 -7q-27 0 -50.5 7t-41 23t-27.5 43t-10 66z" />
<glyph unicode="/" horiz-adv-x="590" d="M0 -248l471 1804h119l-469 -1804h-121z" />
<glyph unicode="0" d="M92 735q0 170 28 308t86.5 236t150 151t218.5 53q120 0 209.5 -53t149.5 -151t89.5 -236.5t29.5 -309.5q0 -169 -29.5 -308t-89.5 -238t-150 -153t-211 -54q-126 0 -217 54t-149.5 153t-86.5 238.5t-28 309.5zM305 733q0 -152 14 -271.5t45.5 -202t83 -126t125.5 -43.5 q75 0 126 43.5t82.5 126t45 202t13.5 271.5t-13.5 271t-45 201t-82 124.5t-124.5 42.5q-75 0 -126.5 -42.5t-83.5 -124.5t-46 -201t-14 -271z" />
<glyph unicode="1" d="M135 1206q31 8 62.5 19.5t67 30t77 45t92.5 63.5l144 106h131v-1237q0 -48 13 -77t36 -44.5t53.5 -20.5t65.5 -5h100v-86h-780v86h137q35 0 65.5 5t53 20.5t36 44.5t13.5 77v1076q-39 -48 -74 -87t-67 -67t-62.5 -43.5t-60.5 -15.5q-45 0 -74 30.5t-29 79.5z" />
<glyph unicode="2" d="M104 0v150l342 395q82 95 137.5 170t89.5 141.5t49 130t15 133.5q0 59 -12.5 106.5t-38 82t-65 53t-93.5 18.5q-70 0 -113.5 -25t-68.5 -67t-34 -97t-9 -116q-37 0 -69 6t-56 21.5t-37.5 41t-13.5 64.5q0 59 25.5 109.5t76 87.5t125.5 57.5t174 20.5q97 0 174 -24.5 t131 -69t82.5 -107.5t28.5 -141q0 -72 -23 -140t-67 -139.5t-107.5 -148.5t-144.5 -166l-346 -383h473q46 0 76 13t49 34t29.5 48.5t17.5 57.5l8 37h86l-10 -354h-881z" />
<glyph unicode="3" d="M119 207q0 62 35 96.5t94 34.5q0 -54 17.5 -99.5t50.5 -78.5t81.5 -51.5t110.5 -18.5q61 0 116 17t97 56t67 102t25 155q0 65 -25.5 117.5t-73.5 89.5t-117 57.5t-155 20.5h-65v104h65q68 0 126.5 22.5t102 63.5t68.5 99.5t25 131.5q0 60 -12 107t-38.5 80t-68 50 t-100.5 17q-70 0 -114 -25t-69 -67t-34 -97t-9 -116q-37 0 -69 6t-56 21.5t-37.5 41t-13.5 64.5q0 59 25.5 109.5t76.5 87.5t126 57.5t174 20.5q97 0 176 -22t135.5 -63.5t87.5 -102t31 -138.5q0 -69 -24.5 -130t-68.5 -110.5t-104 -84.5t-131 -52q38 -4 81 -13.5t85 -27.5 t80.5 -45t68 -66t47 -90.5t17.5 -119.5q0 -82 -22 -147t-60.5 -113.5t-89.5 -82.5t-109 -55t-119 -30.5t-120 -9.5q-101 0 -174 18.5t-120.5 49.5t-70 72.5t-22.5 86.5z" />
<glyph unicode="4" d="M35 401v84l633 977h194v-946h254v-115h-254v-168q0 -48 13.5 -77t36 -44.5t53.5 -20.5t65 -5h27v-86h-617v86h58q35 0 65.5 5t53 20.5t36 44.5t13.5 77v168h-631zM182 516h484v379q0 45 1 99t2.5 110t4 111.5t6.5 103.5q-7 -14 -20 -37.5t-29.5 -52.5t-35 -61t-37 -62.5 t-34.5 -57t-28 -44.5z" />
<glyph unicode="5" d="M113 186q0 57 31.5 89t97.5 32q0 -44 15.5 -82t46 -65.5t77 -43.5t108.5 -16q63 0 116.5 17.5t93 58t61.5 107t22 163.5q0 81 -22 141t-63 100t-98 59.5t-128 19.5q-53 0 -91.5 -4t-68 -10.5t-51.5 -14.5t-41 -16l-49 14l66 725h684l10 -309h-86l-8 61q-3 22 -8.5 37.5 t-17.5 26t-32.5 15.5t-52.5 5h-397l-39 -450q31 11 89.5 22t149.5 11q99 0 184.5 -27t148.5 -81t98.5 -135.5t35.5 -189.5q0 -104 -33.5 -190t-97 -147.5t-155.5 -95t-209 -33.5q-114 0 -188.5 19.5t-118.5 49.5t-62 66.5t-18 70.5z" />
<glyph unicode="6" d="M125 737q0 97 14.5 190t43.5 176t73 153t103.5 120.5t134.5 78.5t165 28q86 0 149.5 -18t105.5 -48t62.5 -69t20.5 -80q0 -59 -40 -91t-117 -32q0 50 -9.5 93.5t-31.5 76t-56 51t-84 18.5q-154 0 -233 -151.5t-90 -450.5q25 21 55.5 40.5t66.5 34t78.5 23.5t92.5 9 q94 0 170 -29t129.5 -83t82.5 -132t29 -176q0 -108 -29.5 -198t-86 -154.5t-138 -100.5t-186.5 -36q-102 0 -189 42.5t-150.5 134t-99.5 235t-36 345.5zM334 666q2 -154 21.5 -263t54.5 -178t85 -101t111 -32q110 0 167.5 85.5t57.5 271.5q0 175 -62.5 255t-180.5 80 q-40 0 -77 -10.5t-69.5 -27t-59.5 -38t-48 -42.5z" />
<glyph unicode="7" d="M121 1090l10 370h916v-59l-504 -1401h-154l483 1296h-538q-110 0 -119 -104l-8 -102h-86z" />
<glyph unicode="8" d="M94 367q0 74 23.5 129.5t65.5 99t99 78.5t124 67q-58 33 -107 71.5t-84 84.5t-54.5 100.5t-19.5 118.5q0 71 25 137t78 117t137.5 82t202.5 31q96 0 171 -26.5t126.5 -73.5t78.5 -111.5t27 -141.5q0 -67 -20 -118t-56 -91.5t-87 -73t-113 -63.5q76 -36 138.5 -77 t107.5 -89t69.5 -104t24.5 -123q0 -97 -35 -173.5t-99 -129.5t-155 -80.5t-203 -27.5q-115 0 -202 30t-145.5 82.5t-88 123t-29.5 151.5zM293 358q0 -64 17.5 -116t52 -89.5t86.5 -58t120 -20.5q67 0 121.5 20.5t93 56.5t59.5 86t21 109q0 52 -19 96.5t-62 86t-111.5 81 t-167.5 82.5q-97 -52 -154 -135t-57 -199zM334 1141q0 -55 17.5 -99t52 -80t86.5 -67.5t120 -63.5q58 29 95.5 59.5t59.5 67t31 80t9 97.5q0 47 -12.5 92t-40 80.5t-72 57t-109.5 21.5q-57 0 -101.5 -18.5t-74.5 -51t-45.5 -77.5t-15.5 -98z" />
<glyph unicode="9" d="M104 979q0 111 30 203.5t86.5 159t138 104t184.5 37.5q104 0 191 -40t151 -124t99.5 -214t35.5 -310q0 -107 -13.5 -209.5t-42 -193.5t-73 -167t-106 -131.5t-141.5 -86t-179 -30.5q-87 0 -144.5 15.5t-91 40.5t-47.5 57t-14 64q0 38 19 64t42 34q14 -32 34.5 -61.5 t50 -52t67.5 -35.5t86 -13q170 0 251 152t91 460q-22 -27 -51.5 -52t-67 -44.5t-83 -31t-99.5 -11.5q-89 0 -163.5 26t-128 78t-83 130t-29.5 182zM315 999q0 -84 15 -144t45 -98t74.5 -55.5t103.5 -17.5q50 1 91.5 14.5t73.5 36t55.5 52.5t37.5 63v4q-2 135 -22 232.5 t-55 160.5t-83.5 93t-107.5 30q-109 0 -168.5 -95t-59.5 -276z" />
<glyph unicode=":" horiz-adv-x="588" d="M166 125q0 40 10 66.5t27.5 42.5t41 23t50.5 7q26 0 49.5 -7t41 -23t28 -42.5t10.5 -66.5q0 -39 -10.5 -66t-28 -43t-41 -23t-49.5 -7q-27 0 -50.5 7t-41 23t-27.5 43t-10 66zM166 969q0 40 10 66.5t27.5 42.5t41 23t50.5 7q26 0 49.5 -7t41 -23t28 -42.5t10.5 -66.5 q0 -39 -10.5 -66t-28 -43.5t-41 -23.5t-49.5 -7q-27 0 -50.5 7t-41 23.5t-27.5 43.5t-10 66z" />
<glyph unicode=";" horiz-adv-x="512" d="M61 -229q101 32 148 78t47 106q0 20 -11 33.5t-28 24t-36 20.5t-36 24t-28 34.5t-11 51.5q0 59 38.5 90t95.5 31q32 0 60 -11.5t50 -34t34.5 -56t12.5 -76.5q0 -65 -18 -126t-58.5 -113t-104 -93.5t-155.5 -68.5v86zM129 969q0 40 10 66.5t27.5 42.5t41 23t50.5 7 q26 0 49.5 -7t41 -23t28 -42.5t10.5 -66.5q0 -39 -10.5 -66t-28 -43.5t-41 -23.5t-49.5 -7q-27 0 -50.5 7t-41 23.5t-27.5 43.5t-10 66z" />
<glyph unicode="&#x3c;" d="M133 696v72l879 473v-137l-688 -373l688 -369v-137z" />
<glyph unicode="=" d="M133 469v121h879v-121h-879zM133 872v121h879v-121h-879z" />
<glyph unicode="&#x3e;" d="M133 225v137l688 369l-688 373v137l879 -473v-72z" />
<glyph unicode="?" horiz-adv-x="1024" d="M88 1253q0 49 22.5 91t70 73t119.5 48.5t171 17.5q97 0 179 -25t142 -72.5t94 -116.5t34 -157q0 -84 -26.5 -153t-77.5 -126t-125 -104t-169 -86v-231h-125v311q89 36 149.5 83.5t97 103t52 116t15.5 121.5q0 53 -13 96.5t-40 74t-69.5 47.5t-101.5 17q-64 0 -107.5 -21 t-70.5 -57t-39 -83.5t-12 -100.5q-37 0 -68 8.5t-53.5 25t-35.5 41.5t-13 58zM328 125q0 40 10 66.5t27.5 42.5t41 23t50.5 7q26 0 49.5 -7t41 -23t28 -42.5t10.5 -66.5q0 -39 -10.5 -66t-28 -43t-41 -23t-49.5 -7q-27 0 -50.5 7t-41 23t-27.5 43t-10 66z" />
<glyph unicode="@" horiz-adv-x="1886" d="M133 446q0 145 31.5 276.5t91 244.5t144 204.5t190.5 156t230.5 99.5t264.5 35q172 0 302 -51t217 -139.5t130.5 -209t43.5 -259.5q0 -148 -36 -267.5t-94 -203.5t-129.5 -129t-142.5 -45q-91 0 -151.5 49t-89.5 137h-11q-21 -40 -47.5 -74t-60 -59t-75 -39t-93.5 -14 q-62 0 -118.5 21t-99 64t-68 109t-25.5 156q0 55 12.5 119t39 127.5t68 123t99.5 105t133.5 73t169.5 27.5q66 0 113.5 -18t78.5 -43l82 43h49l-104 -522q-3 -24 -7 -48q-3 -20 -5 -44t-2 -45q0 -36 10.5 -62.5t27.5 -44t39.5 -25.5t47.5 -8q45 0 92 36t85 105.5t62.5 170.5 t24.5 231q0 134 -43 236.5t-119.5 172t-183 105t-234.5 35.5q-100 0 -196.5 -28t-182.5 -82.5t-159.5 -133t-126.5 -179t-83 -222.5t-30 -262q0 -171 49 -291.5t132.5 -197t194 -111.5t234.5 -35q84 0 159 14.5t140.5 38.5t121 54.5t99.5 62.5l48 -74q-51 -38 -114 -74.5 t-136.5 -65t-158 -46t-179.5 -17.5q-165 0 -303 45.5t-237.5 137.5t-155.5 230t-56 324zM727 479q0 -108 43.5 -160.5t112.5 -52.5q52 0 90 22.5t64 58.5t42 82t25 93l78 416q-13 29 -45.5 45t-69.5 16q-61 0 -110.5 -26.5t-87 -69.5t-64.5 -98.5t-44.5 -113.5t-25.5 -113 t-8 -99z" />
<glyph unicode="A" horiz-adv-x="1444" d="M0 0v86h39q30 0 51 6.5t38 24.5t32.5 49t34.5 80l454 1216h160l463 -1267q12 -32 24.5 -53t29.5 -33.5t39 -17.5t52 -5h27v-86h-563v86h47q123 0 123 98q0 17 -4.5 35t-12.5 41l-82 229h-538l-78 -215q-9 -24 -14 -47.5t-5 -40.5q0 -52 33.5 -76t102.5 -24h47v-86h-500z M453 592h462l-127 358q-32 91 -58.5 170.5t-43.5 153.5q-7 -37 -16.5 -71.5t-20.5 -70.5t-25 -75.5t-32 -87.5z" />
<glyph unicode="B" horiz-adv-x="1339" d="M78 0v86h26q35 0 65.5 5t53.5 20.5t36 44.5t13 77v1004q0 45 -13.5 72.5t-36.5 42.5t-53.5 19.5t-64.5 4.5h-26v86h549q266 0 396 -88.5t130 -277.5q0 -69 -19.5 -121t-53.5 -91t-80.5 -65.5t-100.5 -44.5v-8q70 -12 128 -41t99.5 -75.5t64.5 -110t23 -144.5 q0 -198 -130 -296.5t-396 -98.5h-610zM479 102h199q87 0 147 16t98 51.5t55 92.5t17 139q0 80 -15 139t-51.5 98t-96.5 58t-150 19h-203v-613zM479 817h142q90 0 150 16t96 49.5t51.5 86.5t15.5 127q0 75 -17 125.5t-55 81.5t-98.5 44t-147.5 13h-137v-543z" />
<glyph unicode="C" horiz-adv-x="1257" d="M117 733q0 166 42 304t124.5 237t205.5 154t285 55q105 0 182.5 -17.5t129 -48.5t77 -73t25.5 -91q0 -33 -13.5 -59.5t-37.5 -45t-56.5 -28.5t-70.5 -10q0 48 -12.5 95t-41 84.5t-74 61t-112.5 23.5q-116 0 -197 -42.5t-132 -124t-74 -201t-23 -273.5q0 -137 24 -251 t76 -195.5t132.5 -126.5t193.5 -45q75 0 132.5 14.5t101.5 38.5t77.5 55.5t59.5 65.5q17 -11 28 -30t11 -50q0 -39 -26.5 -79.5t-80.5 -73.5t-137 -54.5t-197 -21.5q-153 0 -269 54t-194.5 153t-118.5 238t-40 308z" />
<glyph unicode="D" horiz-adv-x="1489" d="M78 0v86h26q35 0 65.5 5t53.5 20.5t36 44.5t13 77v1004q0 45 -13.5 72.5t-36.5 42.5t-53.5 19.5t-64.5 4.5h-26v86h627q158 0 282 -48.5t209.5 -141.5t130.5 -229t45 -310q0 -168 -42 -303.5t-125 -231t-208 -147t-292 -51.5h-627zM479 104h178q122 0 213.5 41.5 t152.5 121.5t91.5 197t30.5 269q0 305 -121.5 466t-364.5 161h-180v-1256z" />
<glyph unicode="E" horiz-adv-x="1276" d="M78 0v86h26q34 0 64.5 4.5t53.5 18.5t36.5 41.5t13.5 72.5v1006q0 48 -13 77t-36 44.5t-53.5 20.5t-65.5 5h-26v86h1032l10 -358h-106l-10 88q-4 34 -15.5 64.5t-33 53.5t-54 36.5t-78.5 13.5h-344v-545h494v-100h-494v-613h395q49 0 83.5 13.5t57.5 36.5t36 53.5 t18 64.5l14 88h107l-14 -358h-1098z" />
<glyph unicode="F" horiz-adv-x="1208" d="M78 0v86h26q34 0 64.5 4.5t53.5 18.5t36.5 41.5t13.5 72.5v1014q0 45 -13.5 72.5t-36.5 42.5t-53.5 19.5t-64.5 4.5h-26v86h1032l10 -358h-106l-10 88q-4 35 -16 65.5t-34.5 53t-56.5 36t-82 13.5h-336v-592h494v-100h-494v-435q0 -48 13.5 -77t36 -44.5t53.5 -20.5 t65 -5h68v-86h-637z" />
<glyph unicode="G" horiz-adv-x="1462" d="M117 733q0 166 45.5 304t136 237t224.5 154t311 55q114 0 198.5 -17.5t141 -48.5t84.5 -73t28 -91q0 -33 -15 -59.5t-40.5 -45t-60 -28.5t-74.5 -10q0 48 -14 95t-46 84.5t-84 61t-127 23.5q-130 0 -221.5 -42.5t-149.5 -124t-84 -201t-26 -273.5q0 -153 27 -272t88 -200 t158 -123t237 -42q59 0 114.5 6t98.5 19v330q0 45 -13.5 72.5t-36.5 42t-53.5 19.5t-64.5 5h-8v86h532v-86h-8q-29 0 -55 -5t-45 -20.5t-30 -45t-11 -77.5v-368q-103 -48 -212 -71t-241 -23q-178 0 -310.5 54t-220 153t-130.5 238t-43 308z" />
<glyph unicode="H" horiz-adv-x="1624" d="M78 0v86h26q35 0 65.5 5t53.5 20.5t36 44.5t13 77v1004q0 45 -13.5 72.5t-36.5 42.5t-53.5 19.5t-64.5 4.5h-26v86h596v-86h-27q-34 0 -65 -5t-53.5 -20.5t-36 -44.5t-13.5 -77v-414h666v414q0 48 -13.5 77t-36 44.5t-53 20.5t-65.5 5h-27v86h596v-86h-26q-35 0 -65.5 -5 t-53.5 -20.5t-36 -44.5t-13 -77v-1006q0 -45 13.5 -72.5t36.5 -41.5t53.5 -18.5t64.5 -4.5h26v-86h-596v86h27q35 0 65.5 5t53 20.5t36 44.5t13.5 77v480h-666v-480q0 -48 13.5 -77t36 -44.5t53.5 -20.5t65 -5h27v-86h-596z" />
<glyph unicode="I" horiz-adv-x="752" d="M78 0v86h26q35 0 65.5 5t53.5 20.5t36 44.5t13 77v996q0 48 -13 77t-36 44.5t-53.5 20.5t-65.5 5h-26v86h596v-86h-27q-34 0 -65 -5t-53.5 -20.5t-36 -44.5t-13.5 -77v-996q0 -48 13.5 -77t36 -44.5t53.5 -20.5t65 -5h27v-86h-596z" />
<glyph unicode="J" horiz-adv-x="731" d="M-23 -395h19q66 0 117.5 18.5t86.5 62t53.5 116t18.5 180.5v1255q0 45 -13.5 72.5t-36.5 42.5t-53.5 19.5t-64.5 4.5h-26v86h596v-86h-27q-34 0 -65 -5t-53.5 -20.5t-36 -44.5t-13.5 -77v-1245q0 -138 -36 -229.5t-99 -146t-148.5 -77.5t-183.5 -23h-35v97z" />
<glyph unicode="K" horiz-adv-x="1434" d="M78 0v86h26q34 0 64.5 4.5t53.5 18.5t36.5 41.5t13.5 72.5v1014q0 45 -13.5 72.5t-36.5 42.5t-53.5 19.5t-64.5 4.5h-26v86h596v-86h-27q-34 0 -65 -5t-53.5 -20.5t-36 -44.5t-13.5 -77v-578l424 486q33 38 55 67.5t34.5 53.5t18 42t5.5 33q0 26 -25 35.5t-76 9.5v84h453 v-84q-35 0 -67.5 -13.5t-65 -38t-67 -60t-74.5 -80.5l-297 -334l432 -602q59 -81 113.5 -122.5t111.5 -41.5h4v-86h-22q-103 0 -169 8t-111 29t-78.5 56.5t-71.5 90.5l-353 506l-174 -141v-316q0 -48 13.5 -77t36 -44.5t53.5 -20.5t65 -5h27v-86h-596z" />
<glyph unicode="L" horiz-adv-x="1276" d="M78 0v86h26q35 0 65.5 5t53.5 20.5t36 44.5t13 77v996q0 48 -13 77t-36 44.5t-53.5 20.5t-65.5 5h-26v86h596v-86h-27q-34 0 -64.5 -4.5t-53.5 -19.5t-36.5 -42.5t-13.5 -72.5v-1135h404q46 0 78.5 16.5t53.5 43t32.5 59.5t15.5 66l20 153h107l-14 -440h-1098z" />
<glyph unicode="M" horiz-adv-x="1921" d="M78 0v86h26q34 0 64.5 4.5t53.5 18.5t36.5 41.5t13.5 72.5v1014q0 45 -13.5 72.5t-36.5 42.5t-53.5 19.5t-64.5 4.5h-26v86h467l424 -1171l420 1171h454v-86h-26q-35 0 -65.5 -5t-53.5 -20.5t-36 -44.5t-13 -77v-996q0 -48 13 -77t36 -44.5t53.5 -20.5t65.5 -5h26v-86 h-545v86h7q33 0 59.5 4.5t45 18t29.5 39t13 67.5v1094l-469 -1309h-111l-475 1305v-1072q0 -48 10 -77t29.5 -44.5t47 -20.5t61.5 -5h6v-86h-473z" />
<glyph unicode="N" horiz-adv-x="1563" d="M78 0v86h26q35 0 65.5 5t53.5 20.5t36 44.5t13 77v1004q0 45 -13.5 72.5t-36.5 42.5t-53.5 19.5t-64.5 4.5h-26v86h375l733 -1132v907q0 45 -13.5 72.5t-36.5 42.5t-53.5 19.5t-64.5 4.5h-27v86h514v-86h-26q-35 0 -65.5 -5t-53.5 -20.5t-36 -44.5t-13 -77v-1229h-146 l-768 1180v-947q0 -48 13.5 -77t36 -44.5t53.5 -20.5t65 -5h27v-86h-514z" />
<glyph unicode="O" horiz-adv-x="1520" d="M115 735q0 170 40 308.5t120 236.5t202 151.5t285 53.5q155 0 274 -53.5t201 -152t124 -237t42 -309.5q0 -169 -42 -308t-124 -238t-202 -153t-275 -54q-163 0 -284 54t-201 153t-120 238.5t-40 309.5zM342 733q0 -152 22.5 -271.5t72.5 -202t129.5 -126t193.5 -43.5 t193.5 43.5t129 126t71.5 202t22 271.5t-22 271.5t-71.5 201.5t-128 125t-192.5 43t-194 -43t-130.5 -125t-73 -201.5t-22.5 -271.5z" />
<glyph unicode="P" horiz-adv-x="1237" d="M78 0v86h26q35 0 65.5 5t53.5 20.5t36 44.5t13 77v1004q0 45 -13.5 72.5t-36.5 42.5t-53.5 19.5t-64.5 4.5h-26v86h575q129 0 224 -29.5t157 -85t92.5 -134.5t30.5 -179q0 -91 -28.5 -175t-93.5 -148.5t-170 -103t-257 -38.5h-129v-346q0 -45 13.5 -72.5t36.5 -41.5 t53.5 -18.5t64.5 -4.5h68v-86h-637zM479 666h109q93 0 159 19.5t108 63t61.5 112t19.5 165.5q0 86 -17 149.5t-55 105.5t-98.5 62.5t-147.5 20.5h-139v-698z" />
<glyph unicode="Q" horiz-adv-x="1520" d="M115 735q0 170 40 308.5t120 236.5t202 151.5t285 53.5q155 0 274 -53.5t201 -152t124 -237t42 -309.5q0 -150 -33 -276t-97.5 -222t-159 -158.5t-216.5 -84.5q9 -105 34 -175.5t64 -113t91 -60.5t114 -18h33v-96h-88q-81 0 -161.5 21.5t-146.5 74t-110.5 140 t-54.5 219.5q-141 15 -245.5 74.5t-173.5 157t-103.5 229t-34.5 290.5zM342 733q0 -152 22.5 -271.5t72.5 -202t129.5 -126t193.5 -43.5t193.5 43.5t129 126t71.5 202t22 271.5t-22 271.5t-71.5 201.5t-128 125t-192.5 43t-194 -43t-130.5 -125t-73 -201.5t-22.5 -271.5z " />
<glyph unicode="R" horiz-adv-x="1343" d="M78 0v86h26q34 0 64.5 4.5t53.5 18.5t36.5 41.5t13.5 72.5v1014q0 45 -13.5 72.5t-36.5 42.5t-53.5 19.5t-64.5 4.5h-26v86h551q266 0 396 -98.5t130 -296.5q0 -82 -26.5 -143.5t-69.5 -106.5t-97 -75t-108 -48l281 -444q52 -82 101 -123t114 -41h6v-86h-29 q-96 0 -157.5 7t-104.5 27t-73.5 56t-65.5 94l-277 461h-170v-422q0 -45 13.5 -72.5t36.5 -41.5t53.5 -18.5t64.5 -4.5h27v-86h-596zM479 741h144q90 0 150 20t96 60t51.5 100t15.5 140q0 82 -17 139.5t-55 94t-98.5 53t-147.5 16.5h-139v-623z" />
<glyph unicode="S" horiz-adv-x="1114" d="M98 268q0 62 38.5 100t109.5 38q3 -64 19.5 -123t49.5 -104t84 -72t123 -27q138 0 215.5 66.5t77.5 191.5q0 56 -16 99t-53 79.5t-97.5 70t-150.5 70.5q-95 39 -166 83.5t-118 99t-70 121.5t-23 151q0 88 33.5 157t93.5 116.5t142 72.5t179 25q92 0 163 -19t120 -51 t74.5 -73.5t25.5 -86.5q0 -66 -43.5 -99.5t-117.5 -33.5q0 48 -11.5 94.5t-38.5 83t-71 59.5t-109 23q-59 0 -105.5 -16.5t-78.5 -47t-49 -73.5t-17 -96q0 -61 16 -107.5t53.5 -84t98.5 -71t150 -69.5q90 -37 160.5 -78t119.5 -91.5t75 -113t26 -141.5q0 -97 -35.5 -173.5 t-101.5 -129.5t-159 -80.5t-208 -27.5q-100 0 -176.5 21t-128 58.5t-77.5 91t-26 117.5z" />
<glyph unicode="T" horiz-adv-x="1255" d="M41 1104l10 358h1153l10 -358h-106l-10 88q-4 34 -14 64.5t-29 53.5t-50 36.5t-77 13.5h-199v-1127q0 -48 13.5 -77t36 -44.5t53.5 -20.5t65 -5h47v-86h-637v86h47q34 0 64.5 4.5t53.5 18.5t36.5 41.5t13.5 72.5v1137h-196q-45 0 -75.5 -13.5t-50 -36.5t-29 -53.5 t-13.5 -64.5l-11 -88h-106z" />
<glyph unicode="U" horiz-adv-x="1468" d="M31 1376v86h596v-86h-27q-34 0 -65 -5t-53.5 -20.5t-36 -44.5t-13.5 -77v-799q0 -89 25.5 -151.5t71 -101.5t108 -57t137.5 -18q89 0 153.5 24t107 66.5t63 101t20.5 128.5v815q0 45 -13.5 72.5t-36.5 42.5t-53.5 19.5t-64.5 4.5h-26v86h514v-86h-27q-34 0 -65 -5 t-53.5 -20.5t-36 -44.5t-13.5 -77v-811q0 -102 -32.5 -183.5t-96 -138t-157.5 -86.5t-216 -30q-121 0 -217 25.5t-162.5 81t-101.5 143t-35 212.5v795q0 45 -13.5 72.5t-36.5 42.5t-53.5 19.5t-64.5 4.5h-26z" />
<glyph unicode="V" horiz-adv-x="1382" d="M0 1376v86h563v-86h-47q-62 0 -92.5 -23.5t-30.5 -74.5q0 -17 4.5 -35t12.5 -41l225 -665q31 -91 53 -176.5t39 -159.5q16 74 38 157t56 179l226 651q8 25 13 48t5 40q0 53 -33.5 76.5t-101.5 23.5h-47v86h499v-86h-39q-30 0 -51.5 -6t-39 -23.5t-32.5 -48.5t-32 -81 l-424 -1217h-150l-442 1268q-11 32 -24 53t-30 33t-39 17t-52 5h-27z" />
<glyph unicode="W" horiz-adv-x="2144" d="M18 1376v86h564v-86h-47q-62 0 -92.5 -23.5t-30.5 -74.5q0 -17 5 -35t11 -41l188 -655q26 -93 49 -182.5t40 -163.5q15 80 35.5 174.5t47.5 193.5l244 879h148l256 -887q29 -102 51.5 -195.5t36.5 -164.5q15 74 34.5 155.5t47.5 180.5l180 632q3 12 7 27t7 30t5.5 28 t2.5 22q0 53 -33.5 76.5t-101.5 23.5h-47v86h500v-86h-39q-30 0 -52.5 -6t-40.5 -23t-33 -48t-30 -82l-346 -1217h-184l-334 1147l-313 -1147h-189l-375 1268q-10 32 -22.5 53t-29.5 33t-40 17t-53 5h-27z" />
<glyph unicode="X" horiz-adv-x="1352" d="M16 0v86h13q37 0 64.5 7.5t51 24.5t46.5 44t51 67l342 490l-338 549q-37 59 -83.5 83.5t-92.5 24.5h-27v86h555v-86h-6q-35 0 -58 -4.5t-36 -12.5t-18 -19t-5 -23q0 -11 1.5 -21t6.5 -23.5t14.5 -31.5t26.5 -45l185 -299l194 295q23 35 37 66t14 59q0 18 -8.5 29.5 t-23 18t-34.5 9t-44 2.5h-6v86h448v-86h-18q-30 0 -54.5 -7t-47.5 -24.5t-47.5 -45.5t-53.5 -70l-297 -428l377 -606q45 -60 85 -84.5t79 -24.5h26v-86h-553v86h11q122 0 122 68q0 11 -2.5 22t-9.5 26t-20.5 37t-34.5 56l-203 326l-227 -336q-9 -13 -18 -29.5t-17 -34.5 t-13 -36.5t-5 -34.5q0 -35 32.5 -49.5t100.5 -14.5h6v-86h-488z" />
<glyph unicode="Y" horiz-adv-x="1280" d="M-10 1376v86h563v-86h-76q-28 0 -45.5 -5t-27.5 -14t-13.5 -21t-3.5 -25q0 -29 12.5 -58t24.5 -51l151 -274q36 -63 61 -124.5t42 -109.5q9 22 22.5 49t30 57.5t34.5 63t36 64.5l131 235q20 35 28.5 66.5t8.5 56.5q0 45 -32 67.5t-91 22.5h-60v86h500v-86h-24 q-22 0 -41.5 -7.5t-39.5 -26t-41.5 -49t-47.5 -76.5l-344 -607v-377q0 -48 13 -77t36 -44.5t53.5 -20.5t64.5 -5h48v-86h-637v86h47q34 0 64.5 4.5t53.5 18.5t36.5 41.5t13.5 72.5v387l-379 658q-17 29 -32 49.5t-31.5 33.5t-36.5 19t-46 6h-26z" />
<glyph unicode="Z" horiz-adv-x="1212" d="M74 0v82l768 1278h-445q-45 0 -75.5 -13.5t-49.5 -36.5t-29 -53.5t-14 -64.5l-10 -88h-106l10 358h971v-84l-770 -1276h516q46 0 77 13.5t50 36.5t29 53.5t14 64.5l10 88h106l-10 -358h-1042z" />
<glyph unicode="[" horiz-adv-x="735" d="M205 -262v1818h457v-86h-89q-34 0 -64.5 -5t-53.5 -20.5t-36 -44.5t-13 -77v-1352q0 -48 13 -77t36 -44.5t53.5 -20.5t64.5 -5h89v-86h-457z" />
<glyph unicode="\" horiz-adv-x="590" d="M0 1556h119l471 -1804h-121z" />
<glyph unicode="]" horiz-adv-x="737" d="M76 -176h88q35 0 65.5 5t53 20.5t36 44.5t13.5 77v1352q0 48 -13.5 77t-36 44.5t-53 20.5t-65.5 5h-88v86h456v-1818h-456v86z" />
<glyph unicode="^" d="M104 545l431 917h71l432 -917h-137l-332 729l-327 -729h-138z" />
<glyph unicode="_" horiz-adv-x="940" d="M-10 -170h960v-121h-960v121z" />
<glyph unicode="`" horiz-adv-x="1182" d="M393 1548v21h219q16 -34 37.5 -74.5t45.5 -81t49 -78.5t47 -67v-27h-78q-41 28 -89 69.5t-93 85.5t-82 84.5t-56 67.5z" />
<glyph unicode="a" horiz-adv-x="1153" d="M102 307q0 163 116 242t351 86l170 6v123q0 55 -6 101.5t-26 80t-57.5 52t-100.5 18.5q-59 0 -95.5 -16.5t-57 -46.5t-27.5 -71t-7 -89q-85 0 -129.5 29t-44.5 100q0 53 29 90t79.5 60.5t117.5 34.5t143 11q94 0 164 -18.5t117 -60.5t70.5 -109.5t23.5 -165.5v-531 q0 -43 7 -71t22 -45t39.5 -24t58.5 -7h6v-86h-277l-32 176h-17q-32 -43 -62 -79t-66 -62t-81.5 -40.5t-109.5 -14.5q-68 0 -126.5 19.5t-101 60t-66.5 102t-24 145.5zM301 297q0 -96 40.5 -143.5t125.5 -47.5q62 0 112.5 20t86 57t54.5 90t19 118v166l-131 -6 q-87 -4 -145.5 -21.5t-94.5 -49t-51.5 -77.5t-15.5 -106z" />
<glyph unicode="b" horiz-adv-x="1257" d="M37 0v86h16q35 0 65.5 5t53 20.5t36 44.5t13.5 77v1098q0 45 -13.5 72.5t-36.5 42.5t-53.5 19.5t-64.5 4.5h-16v86h377v-376q0 -35 -1 -80.5t-3 -87.5q-2 -48 -4 -99h8q23 47 52 85t67 64.5t86 41t108 14.5q101 0 179 -33.5t131 -103t80.5 -176.5t27.5 -254 q0 -148 -27.5 -256t-80.5 -178t-131 -103.5t-179 -33.5q-59 0 -107 13t-86.5 37t-68 57t-51.5 73h-13l-36 -160h-328zM414 551q0 -107 13.5 -189t46 -138t86 -84.5t134.5 -28.5q68 0 115.5 28.5t78 84.5t44.5 138.5t14 190.5q0 109 -14 190.5t-44.5 135.5t-79 81t-116.5 27 q-80 0 -133.5 -26.5t-85.5 -80.5t-45.5 -136t-13.5 -193z" />
<glyph unicode="c" horiz-adv-x="1008" d="M113 543q0 164 34.5 274.5t96 177.5t145 95t180.5 28q64 0 127.5 -12.5t114.5 -38.5t83 -65.5t32 -92.5q0 -71 -46 -100t-137 -29q0 48 -8 91t-27.5 75.5t-53 51t-85.5 18.5q-59 0 -106.5 -22t-81.5 -76t-52 -145t-18 -228q0 -218 72.5 -325t237.5 -107q95 0 166 40 t106 103q15 -12 25 -32t10 -48q0 -35 -22 -70t-65.5 -63t-108.5 -45.5t-152 -17.5q-102 0 -188 31.5t-148 99.5t-96.5 174.5t-34.5 257.5z" />
<glyph unicode="d" horiz-adv-x="1257" d="M113 547q0 148 27 256t80 178t131 103.5t179 33.5q59 0 107 -13t86.5 -37t68.5 -57t52 -73h12q-3 50 -6 94q-2 38 -4 75.5t-2 55.5v168q0 45 -13.5 72.5t-36.5 42.5t-53.5 19.5t-64.5 4.5h-17v86h377v-1331q0 -45 13.5 -72.5t36.5 -42.5t53.5 -19.5t64.5 -4.5h17v-86 h-347l-22 184h-8q-23 -47 -52.5 -84.5t-67.5 -64t-86 -41t-108 -14.5q-101 0 -179 33.5t-131 103t-80 176.5t-27 254zM311 545q0 -218 59 -326t195 -108q80 0 133.5 26.5t86 80.5t46 136t13.5 193q0 107 -13.5 189t-46 137.5t-86.5 84.5t-135 29q-67 0 -115 -29t-78.5 -85 t-44.5 -138.5t-14 -189.5z" />
<glyph unicode="e" horiz-adv-x="1096" d="M113 541q0 287 118 432t336 145q99 0 178 -31t134 -92.5t84.5 -153t29.5 -212.5v-94h-682q2 -112 22.5 -192.5t59 -132.5t94.5 -76.5t129 -24.5q53 0 98.5 12t82.5 32t65.5 45.5t46.5 53.5q14 -6 26.5 -25t12.5 -45q0 -31 -22 -66.5t-67 -65.5t-112.5 -50t-158.5 -20 q-111 0 -199.5 37.5t-149.5 109.5t-93.5 176.5t-32.5 237.5zM315 645h471q0 81 -12 148t-38 115t-68.5 74t-104.5 26q-114 0 -175.5 -92.5t-72.5 -270.5z" />
<glyph unicode="f" horiz-adv-x="756" d="M55 0v86h27q35 0 65.5 5t53 20.5t36 44.5t13.5 77v768h-187v97h187v102q0 92 25 162t72 118t114 72.5t151 24.5q80 0 135 -10.5t88.5 -29.5t48.5 -45t15 -58q0 -28 -12.5 -49.5t-35 -36t-53 -22t-67.5 -7.5q0 31 -6.5 60.5t-22 52.5t-41.5 37t-65 14q-44 0 -73.5 -17 t-47.5 -50.5t-25.5 -82.5t-7.5 -114v-121h289v-97h-289v-768q0 -48 13.5 -77t36 -44.5t53.5 -20.5t65 -5h78v-86h-633z" />
<glyph unicode="g" horiz-adv-x="1102" d="M47 -193q0 60 21 105t56.5 77t81.5 52t97 29q-21 9 -41 24t-36 36t-26 48t-10 60q0 61 32 105.5t102 86.5q-44 18 -78.5 49.5t-58 72t-36 88.5t-12.5 99q0 89 24 159t72 119t120 75t169 26q37 0 73 -5.5t66.5 -15t55 -21.5t39.5 -25q15 16 35 35.5t45 36t54.5 27.5 t63.5 11q31 0 53.5 -8.5t37.5 -23t22.5 -34t7.5 -40.5q0 -22 -6.5 -41.5t-19.5 -34t-33.5 -23t-48.5 -8.5q0 12 -3 24t-10.5 22.5t-20.5 17t-34 6.5q-26 0 -47 -6t-41 -19q35 -43 57.5 -101.5t22.5 -146.5q0 -76 -23 -140.5t-68.5 -111.5t-115 -73.5t-162.5 -26.5 q-12 0 -27 1h-30q-15 1 -28 2.5t-21 2.5q-20 -10 -38 -22t-31.5 -27t-21.5 -34t-8 -42q0 -25 9.5 -40t26.5 -23.5t40.5 -11t50.5 -2.5h232q92 0 156 -23t104.5 -63.5t59 -97t18.5 -122.5q0 -88 -32.5 -159t-99.5 -120.5t-169.5 -76.5t-241.5 -27q-214 0 -320 79t-106 220z M213 -180q0 -45 12 -84t42 -67t81 -44t129 -16q110 0 181.5 18.5t113.5 51.5t59 78.5t17 99.5q0 47 -13.5 77.5t-40 48t-65.5 24.5t-90 7h-201q-43 0 -83.5 -7.5t-72 -28.5t-50.5 -59t-19 -99zM332 745q0 -131 43.5 -192t142.5 -61q50 0 84.5 15t56.5 46t31.5 79.5 t9.5 115.5q0 138 -42 204t-142 66q-99 0 -141.5 -67.5t-42.5 -205.5z" />
<glyph unicode="h" horiz-adv-x="1300" d="M37 0v86h16q35 0 65.5 5t53 20.5t36 44.5t13.5 77v1098q0 45 -13.5 72.5t-36.5 42.5t-53.5 19.5t-64.5 4.5h-16v86h377v-450q0 -28 -1 -58.5t-3 -56.5q-2 -30 -4 -59h10q92 186 301 186q87 0 154.5 -23.5t113.5 -72t70 -124.5t24 -181v-484q0 -48 12 -77t33 -44.5 t50 -20.5t63 -5h6v-86h-356v707q0 67 -12 119t-38.5 88t-69.5 54.5t-105 18.5q-64 0 -110.5 -23.5t-77 -67t-45.5 -105t-15 -136.5v-432q0 -45 13.5 -72.5t36.5 -41.5t53.5 -18.5t64.5 -4.5h6v-86h-551z" />
<glyph unicode="i" horiz-adv-x="655" d="M47 0v86h27q34 0 64.5 4.5t53.5 18.5t36.5 41.5t13.5 72.5v649q0 45 -13.5 72.5t-36.5 42.5t-53.5 20t-64.5 5h-6v86h366v-865q0 -48 13.5 -77t36 -44.5t53.5 -20.5t65 -5h27v-86h-582zM213 1430q0 36 9 60t25 39t37 21t46 6q24 0 45 -6t36.5 -21t25 -39t9.5 -60 t-9.5 -60t-25 -39t-36.5 -21.5t-45 -6.5q-25 0 -46 6.5t-37 21.5t-25 39t-9 60z" />
<glyph unicode="j" horiz-adv-x="614" d="M-25 -395h15q55 0 98 18.5t72.5 62t45 116t15.5 180.5v890q0 45 -13.5 72.5t-36.5 42.5t-53.5 20t-64.5 5h-6v86h367v-1114q0 -138 -30 -229.5t-84 -146t-128.5 -77.5t-163.5 -23h-33v97zM193 1430q0 36 9 60t24.5 39t37 21t45.5 6t45.5 -6t37 -21t25 -39t9.5 -60 t-9.5 -60t-25 -39t-37 -21.5t-45.5 -6.5t-45.5 6.5t-37 21.5t-24.5 39t-9 60z" />
<glyph unicode="k" horiz-adv-x="1198" d="M37 0v86h16q35 0 65.5 5t53 20.5t36 44.5t13.5 77v1098q0 45 -13.5 72.5t-36.5 42.5t-53.5 19.5t-64.5 4.5h-16v86h377v-790q0 -28 -1 -71.5t-3 -85.5q-2 -48 -4 -101l256 280q33 37 54.5 65t34.5 49t18 37.5t5 31.5q0 26 -24.5 33.5t-75.5 7.5v86h452v-86 q-71 0 -139.5 -50t-148.5 -141l-144 -162l273 -405q53 -82 105.5 -125t121.5 -43h6v-86h-29q-89 0 -146.5 5.5t-99.5 26t-77 60t-78 107.5l-205 321l-151 -112v-185q0 -45 13.5 -72.5t36.5 -41.5t53.5 -18.5t64.5 -4.5h6v-86h-551z" />
<glyph unicode="l" horiz-adv-x="635" d="M27 0v86h26q35 0 65.5 5t53 20.5t36 44.5t13.5 77v1098q0 45 -13.5 72.5t-36.5 42.5t-53.5 19.5t-64.5 4.5h-26v86h387v-1323q0 -48 13 -77t36 -44.5t53.5 -20.5t65.5 -5h26v-86h-581z" />
<glyph unicode="m" horiz-adv-x="1935" d="M57 0v86h27q35 0 64 5t50 20.5t32.5 44.5t11.5 77v639q0 45 -12 72.5t-33 42.5t-50 20t-63 5h-6v86h321l27 -166h10q31 57 65 93.5t72.5 57t81 28t90.5 7.5q50 0 95 -10t83.5 -32t69 -57.5t49.5 -86.5h17q31 57 67 93.5t76.5 57t85 28t92.5 7.5q78 0 140 -23.5t105 -72 t66 -124.5t23 -181v-484q0 -48 12 -77t33 -44.5t50 -20.5t63 -5h6v-86h-356v707q0 67 -11.5 119t-37 88t-66.5 54.5t-100 18.5q-64 0 -107.5 -24.5t-70.5 -66.5t-38.5 -97t-11.5 -117v-449q0 -48 12 -77t33 -44.5t50 -20.5t63 -5h6v-86h-356v707q0 67 -11.5 119t-37 88 t-66.5 54.5t-100 18.5q-67 0 -112.5 -27t-73.5 -73t-40 -106t-12 -126v-432q0 -45 13.5 -72.5t36.5 -41.5t53.5 -18.5t64.5 -4.5h6v-86h-551z" />
<glyph unicode="n" horiz-adv-x="1321" d="M57 0v86h17q35 0 65.5 5t53 20.5t36 44.5t13.5 77v639q0 45 -13.5 72.5t-36.5 42.5t-53.5 20t-64.5 5h-6v86h331l27 -166h10q32 57 67.5 93.5t75 57t84 28t93.5 7.5q81 0 144.5 -23.5t108 -72t68 -124.5t23.5 -181v-484q0 -48 11.5 -77t32.5 -44.5t50 -20.5t63 -5h7v-86 h-357v707q0 67 -12 119t-38.5 88t-69.5 54.5t-105 18.5q-70 0 -117.5 -27t-76.5 -73t-41.5 -106t-12.5 -126v-432q0 -45 13.5 -72.5t36.5 -41.5t53.5 -18.5t64.5 -4.5h6v-86h-551z" />
<glyph unicode="o" horiz-adv-x="1182" d="M113 551q0 287 121.5 427t359.5 140q111 0 199 -34.5t149.5 -105t94 -177t32.5 -250.5q0 -289 -122.5 -430t-358.5 -141q-111 0 -199 35t-149.5 106t-94 178.5t-32.5 251.5zM311 551q0 -114 15 -201t48.5 -145.5t87 -88.5t130.5 -30t130 30t86 88.5t47.5 145.5t14.5 201 t-15 200t-48 143.5t-86.5 86.5t-130.5 29t-130 -29t-86 -86.5t-48 -143.5t-15 -200z" />
<glyph unicode="p" horiz-adv-x="1257" d="M27 1012v86h358l21 -185h8q23 47 52 85t67 64.5t86 41t108 14.5q101 0 179 -33.5t131 -103t80.5 -176.5t27.5 -254q0 -148 -27.5 -256t-80.5 -178t-131 -103.5t-179 -33.5q-59 0 -107 13t-86.5 37t-68 57t-51.5 73h-8q2 -53 4 -99q1 -19 1.5 -39.5t1 -38.5t1 -32.5 t0.5 -22.5v-196q0 -45 13.5 -72.5t36.5 -42t53.5 -19t64.5 -4.5h6v-86h-551v86h16q35 0 65.5 5t53 20.5t36 45t13.5 77.5v1130q0 45 -13.5 72.5t-36.5 42.5t-53.5 20t-64.5 5h-26zM414 551q0 -107 13.5 -189t46 -138t86 -84.5t134.5 -28.5q68 0 115.5 28.5t78 84.5 t44.5 138.5t14 190.5q0 109 -14 190.5t-44.5 135.5t-79 81t-116.5 27q-80 0 -133.5 -26.5t-85.5 -80.5t-45.5 -136t-13.5 -193z" />
<glyph unicode="q" horiz-adv-x="1257" d="M113 547q0 148 27 256t80 178t131 103.5t179 33.5q59 0 107 -13t86.5 -37t68.5 -57t52 -73h12l37 160h328v-86h-17q-34 0 -65 -5t-53.5 -20.5t-36 -45t-13.5 -77.5v-1130q0 -45 13.5 -72.5t36.5 -42.5t53.5 -20t64.5 -5h17v-86h-613v86h68q35 0 65.5 5t53 20.5t36 45 t13.5 77.5v176q0 35 1 80.5t3 87.5q2 48 4 98h-8q-23 -47 -52.5 -84.5t-67.5 -64t-86 -41t-108 -14.5q-101 0 -179 33.5t-131 103t-80 176.5t-27 254zM311 545q0 -218 59 -326t195 -108q80 0 133.5 26.5t86 80.5t46 136t13.5 193q0 107 -13.5 189t-46 137.5t-86.5 84.5 t-135 29q-67 0 -115 -29t-78.5 -85t-44.5 -138.5t-14 -189.5z" />
<glyph unicode="r" horiz-adv-x="965" d="M68 0v86h6q35 0 65.5 5t53 20.5t36 44.5t13.5 77v639q0 45 -13.5 72.5t-36.5 42.5t-53.5 20t-64.5 5h-6v86h315l39 -203h10q20 46 41 86.5t51.5 71t75.5 48t113 17.5q112 0 166.5 -39t54.5 -110q0 -32 -10.5 -59t-33.5 -46.5t-59 -30t-88 -10.5q0 85 -24 122.5t-84 37.5 q-38 0 -68 -21.5t-52.5 -57t-38 -81.5t-25 -94.5t-13.5 -96.5t-4 -87v-322q0 -45 13.5 -72.5t36.5 -41.5t53.5 -18.5t64.5 -4.5h57v-86h-591z" />
<glyph unicode="s" horiz-adv-x="924" d="M92 197q0 41 13.5 68.5t33 43.5t42 22.5t40.5 6.5q0 -54 11 -101t37 -82.5t68.5 -56t104.5 -20.5q55 0 97 13.5t70.5 38t43.5 59t15 75.5q0 38 -11.5 65.5t-40 51.5t-77.5 49t-123 57q-79 35 -137.5 67.5t-96.5 70.5t-57 86.5t-19 115.5q0 70 27.5 124t78.5 90.5 t122 55.5t158 19q73 0 129 -15t94 -40.5t57 -60t19 -72.5q0 -56 -38.5 -89.5t-109.5 -33.5q0 103 -42.5 160t-133.5 57q-52 0 -89 -12t-60.5 -34t-34.5 -52t-11 -66q0 -39 14 -67.5t44.5 -52.5t79 -46.5t116.5 -50.5q81 -34 139 -67t95.5 -72t55.5 -88t18 -113 q0 -80 -29 -140t-82 -100.5t-127.5 -60.5t-165.5 -20q-77 0 -139.5 13.5t-106.5 41t-68 68t-24 94.5z" />
<glyph unicode="t" horiz-adv-x="721" d="M39 981v82q37 0 81.5 15t78.5 50q35 38 56.5 90.5t37.5 131.5h94v-252h268v-117h-268v-690q0 -105 42.5 -154t113.5 -49q37 0 68 4t63 10v-90q-13 -6 -34 -12t-45.5 -10.5t-51.5 -7t-51 -2.5q-78 0 -134 16.5t-92 53.5t-53.5 98t-17.5 149v684h-156z" />
<glyph unicode="u" horiz-adv-x="1300" d="M47 1012v86h367v-707q0 -67 10.5 -119t35 -88t66 -54.5t103.5 -18.5q68 0 116.5 24t80 67.5t46.5 104.5t15 135v422q0 48 -13.5 77.5t-36 45t-53 20.5t-65.5 5h-6v86h366v-875q0 -45 13.5 -72.5t36.5 -41.5t53.5 -18.5t64.5 -4.5h6v-86h-325l-27 166h-10 q-31 -58 -68.5 -94t-79.5 -56.5t-88 -28t-96 -7.5q-81 0 -144 23t-106 72t-65.5 125t-22.5 181v491q0 45 -13.5 72.5t-36.5 42.5t-53.5 20t-64.5 5h-6z" />
<glyph unicode="v" horiz-adv-x="1186" d="M8 1012v86h512v-86h-26q-62 0 -92.5 -24t-30.5 -75q0 -17 4 -34.5t12 -40.5l139 -387q13 -36 27 -79.5t26.5 -85.5t22.5 -79.5t14 -63.5h7q5 22 16.5 54.5t26 71t30 78.5t29.5 77l147 399q10 25 14.5 48t4.5 40q0 53 -33.5 77t-101.5 24h-15v86h439v-86h-25 q-30 0 -51 -6.5t-38 -24.5t-32.5 -49t-34.5 -80l-323 -852h-187l-329 903q-12 32 -25 53t-30 33.5t-39 17.5t-52 5h-6z" />
<glyph unicode="w" horiz-adv-x="1765" d="M2 1012v86h506v-86h-27q-61 0 -92 -18t-31 -68q0 -17 5.5 -41t11.5 -47l96 -344q10 -37 21 -81t20.5 -87.5t17.5 -81.5t13 -64h6q5 26 13.5 60.5t20 74t24.5 80.5t26 78l213 619h129l205 -607q12 -37 25.5 -79.5t25.5 -84t22 -78.5t15 -63h6q9 51 29 125.5t51 173.5 l102 330q8 26 13.5 55.5t5.5 46.5q0 53 -33.5 77t-102.5 24h-14v86h438v-86h-26q-30 0 -52 -6t-39.5 -23.5t-32.5 -48.5t-30 -82l-264 -852h-164l-244 721l-37 135l-290 -856h-162l-268 903q-12 32 -25 53t-30 33.5t-39 17.5t-52 5h-6z" />
<glyph unicode="x" horiz-adv-x="1184" d="M10 0v86h19q37 0 65 6t53 21t50 40.5t55 63.5l258 334l-258 352q-45 53 -87.5 81t-88.5 28h-27v86h520v-86h-6q-35 0 -58 -4.5t-36 -13t-18 -19.5t-5 -23q0 -21 12.5 -41.5t35.5 -52.5l135 -184l106 153q23 35 37 66t14 59q0 37 -31.5 48.5t-78.5 11.5h-6v86h448v-86h-18 q-30 0 -54.5 -5t-48 -19t-48.5 -40t-56 -67l-211 -281l301 -405q45 -60 85.5 -84.5t78.5 -24.5h27v-86h-529v86h10q123 0 123 68q0 11 -3 22.5t-12 27t-24 37.5t-39 54l-137 184l-143 -200q-9 -12 -19 -28t-18 -33t-13 -34.5t-5 -33.5q0 -35 29 -49.5t98 -14.5h6v-86h-488z " />
<glyph unicode="y" horiz-adv-x="1157" d="M8 1012v86h492v-86h-6q-62 0 -92.5 -24t-30.5 -75q0 -17 3.5 -34.5t12.5 -40.5l150 -365q14 -35 29.5 -76.5t29 -82t24.5 -76.5t15 -62h6q11 45 30.5 109.5t45.5 138.5l137 399q9 25 13.5 48t4.5 40q0 53 -33.5 77t-101.5 24h-6v86h426v-86h-6q-30 0 -51.5 -6.5 t-39 -24.5t-32.5 -49t-33 -80l-311 -860q-36 -99 -68 -174t-67 -128.5t-76.5 -88.5t-94.5 -56t-122 -29t-160 -8h-18v97q104 0 179 31t129.5 85t91 127.5t61.5 159.5l-379 895q-14 32 -27 52.5t-29.5 33.5t-38 18t-51.5 5h-6z" />
<glyph unicode="z" horiz-adv-x="1047" d="M86 0v82l594 899h-320q-40 0 -66 -10.5t-42.5 -31.5t-27 -52t-21.5 -72l-2 -8h-86l20 291h785v-84l-596 -897h372q36 0 59.5 14t39 37t25 53.5t16.5 63.5l10 47h86l-10 -332h-836z" />
<glyph unicode="{" horiz-adv-x="877" d="M102 606v86q51 2 95 12t77 34.5t51.5 65.5t18.5 103v357q0 140 74.5 216t220.5 76h135v-88h-61q-91 0 -129.5 -54t-38.5 -161v-350q0 -100 -56.5 -166.5t-171.5 -85.5v-2q118 -20 173 -86t55 -168v-354q0 -105 38.5 -160t129.5 -55h61v-88h-135q-72 0 -127.5 21t-92.5 59 t-56 92.5t-19 122.5v356q0 63 -18.5 104t-51.5 65.5t-77 35t-95 12.5z" />
<glyph unicode="|" d="M510 -492v2048h123v-2048h-123z" />
<glyph unicode="}" horiz-adv-x="877" d="M102 -174h62q91 0 129.5 55t38.5 160v354q0 102 54.5 168t172.5 86v2q-114 19 -170.5 85.5t-56.5 166.5v350q0 107 -38.5 161t-129.5 54h-62v88h136q145 0 219.5 -76t74.5 -216v-357q0 -62 19 -103t51.5 -65.5t76.5 -34.5t95 -12v-86q-51 -2 -95 -12.5t-76.5 -35 t-51.5 -65.5t-19 -104v-356q0 -68 -19 -122.5t-56 -92.5t-92 -59t-127 -21h-136v88z" />
<glyph unicode="~" horiz-adv-x="1149" d="M113 551q6 64 18.5 128t40.5 115t75.5 83t123.5 32q34 0 68 -13t66 -33t60.5 -44t52.5 -45q22 -20 43 -38.5t41.5 -32.5t41.5 -22.5t42 -8.5q57 0 84 61.5t41 175.5h123q-7 -64 -21 -128t-42.5 -115t-75 -83t-119.5 -32q-30 0 -62 12.5t-63.5 31.5t-60 41.5t-51.5 43.5 t-45 40.5t-43.5 34.5t-43.5 24t-45 9q-60 0 -89 -58t-40 -179h-120z" />
<glyph unicode="&#xa1;" horiz-adv-x="682" d="M211 971q0 39 10.5 65.5t28 43t41 23.5t49.5 7q27 0 50.5 -7t41 -23.5t27.5 -43t10 -65.5q0 -40 -10 -67t-27.5 -43t-41 -23t-50.5 -7q-26 0 -49.5 7t-41 23t-28 43t-10.5 67zM221 -367l72 1051h94l72 -1051h-238z" />
<glyph unicode="&#xa2;" d="M162 739q0 152 33 258t90 173.5t134 101t165 41.5v149h102v-149q59 -5 118 -19.5t106 -40t76.5 -62.5t29.5 -85q0 -71 -45.5 -100t-136.5 -29q0 42 -9 80.5t-27 69t-46 51.5t-66 28v-909q42 0 84.5 6t81.5 15.5t73 21t58 22.5v-112q-53 -28 -129.5 -50t-167.5 -24v-176 h-102v180q-93 10 -170.5 45.5t-133.5 102t-87 168t-31 243.5zM360 741q0 -183 54.5 -292t169.5 -140v897q-49 -9 -90 -37.5t-71 -83t-46.5 -139t-16.5 -205.5z" />
<glyph unicode="&#xa3;" d="M100 690v96h189q-14 32 -28 71t-25 81.5t-18 87t-7 86.5q0 88 29 157t83 116.5t131.5 72.5t174.5 25q99 0 168 -17.5t112 -48.5t62.5 -73t19.5 -91q0 -66 -43.5 -99.5t-118.5 -33.5q0 48 -8.5 94.5t-31 83t-63 59.5t-105.5 23q-119 0 -174.5 -68t-55.5 -196q0 -48 8 -94 t20 -88.5t26 -80t26 -67.5h348v-96h-319q15 -51 28 -104t13 -115q0 -88 -49.5 -155.5t-131.5 -122.5l5 -9q42 20 78.5 28.5t70.5 8.5q41 0 90 -12t97.5 -27t93 -27t75.5 -12q36 0 66.5 10.5t57.5 27.5t49.5 38.5t41.5 44.5v-133q-18 -25 -43 -52t-58 -49t-74.5 -36 t-92.5 -14t-100 14.5t-99 31.5t-101.5 31.5t-106.5 14.5q-68 0 -127 -19.5t-125 -50.5l-27 -12v108l37 23q38 23 75.5 55.5t67.5 75t49 94.5t19 113q0 60 -15 117.5t-36 113.5h-228z" />
<glyph unicode="&#xa4;" d="M131 379l133 135q-32 46 -49.5 101.5t-17.5 117.5t17.5 117.5t51.5 101.5l-135 135l86 87l133 -136q47 34 102.5 53t118.5 19q60 0 115.5 -19t101.5 -53l138 138l86 -89l-135 -135q34 -46 52.5 -101.5t18.5 -117.5t-18.5 -117.5t-52.5 -101.5l135 -135l-84 -86l-137 135 q-47 -32 -102.5 -51t-117.5 -19t-117 18t-102 52l-135 -135zM311 733q0 -54 20.5 -101.5t56 -83t82.5 -56.5t101 -21q56 0 104 21t83 56.5t55.5 83t20.5 101.5q0 56 -20.5 104t-55.5 83.5t-83 56t-104 20.5q-54 0 -101 -20.5t-82.5 -56t-56 -83.5t-20.5 -104z" />
<glyph unicode="&#xa5;" d="M10 1376v86h498v-86h-14q-62 0 -89.5 -19t-27.5 -61q0 -24 8 -54.5t25 -65.5l98 -218q15 -32 29 -69t26.5 -73t22.5 -67t16 -51q4 11 13 32.5t20.5 47t24 52t22.5 47.5l117 249q24 54 36.5 99.5t12.5 68.5q0 42 -28.5 62t-96.5 20h-6v86h418v-86h-19q-26 0 -45 -7 t-35.5 -25t-34 -49t-40.5 -78l-250 -519h254v-96h-287v-143h287v-97h-287v-129q0 -48 13.5 -77t36 -44.5t53 -20.5t65.5 -5h47v-86h-629v86h47q34 0 64 4.5t52.5 18.5t36 41.5t15.5 72.5v139h-286v97h286v143h-286v96h247l-278 570q-15 30 -28 50.5t-29.5 33.5t-37.5 18.5 t-51 5.5h-6z" />
<glyph unicode="&#xa6;" d="M510 328h123v-820h-123v820zM510 737v819h123v-819h-123z" />
<glyph unicode="&#xa7;" horiz-adv-x="1114" d="M160 772q0 77 34 134.5t87 94.5q-38 45 -57 100.5t-19 129.5q0 78 28.5 138.5t78.5 102t119.5 63t150.5 21.5q84 0 146.5 -17.5t104 -48t62 -72.5t20.5 -91q0 -66 -39.5 -95.5t-105.5 -29.5q0 48 -10 93t-33.5 80.5t-61 57t-92.5 21.5q-102 0 -158.5 -51t-56.5 -148 q0 -54 20.5 -90.5t61 -66t99.5 -57.5t137 -66q87 -42 150 -84t104 -87.5t60.5 -96.5t19.5 -111q0 -37 -10.5 -73.5t-27.5 -70t-39 -63t-46 -53.5q29 -40 46 -90t17 -113q0 -81 -22.5 -148t-70 -115.5t-122 -75.5t-178.5 -27q-79 0 -143.5 15.5t-110.5 45.5t-71 74t-25 102 q0 42 13.5 69.5t33 44t42 23t40.5 6.5q0 -54 13.5 -104.5t42 -89.5t73 -62.5t106.5 -23.5q126 0 188 55.5t62 149.5q0 45 -11 78.5t-48.5 67t-109 74t-191.5 99.5q-81 40 -138.5 81.5t-93.5 87.5t-52.5 98.5t-16.5 113.5zM291 823q0 -41 14 -73.5t48 -64t91.5 -64.5 t145.5 -76q62 -31 122 -62.5t109 -74.5q17 24 28 53t11 63q0 35 -10 66t-38.5 63t-80 66.5t-133.5 75.5q-74 35 -138.5 69t-117.5 76q-22 -20 -36.5 -48t-14.5 -69z" />
<glyph unicode="&#xa8;" horiz-adv-x="1182" d="M291 1409q0 32 8 54t22 35.5t33 19.5t41 6t41 -6t33.5 -19.5t22.5 -35.5t8 -54q0 -31 -8 -53t-22.5 -36t-33.5 -20t-41 -6q-45 0 -74.5 26t-29.5 89zM680 1409q0 32 8 54t22 35.5t33 19.5t41 6t41 -6t33.5 -19.5t22.5 -35.5t8 -54q0 -31 -8 -53t-22.5 -36t-33.5 -20 t-41 -6q-45 0 -74.5 26t-29.5 89z" />
<glyph unicode="&#xa9;" horiz-adv-x="1731" d="M113 731q0 104 27 200.5t75.5 180t117 152.5t152 118t179.5 76t200 27t200.5 -27t180 -76t152.5 -118t118 -152.5t76 -180t27 -200.5t-27 -200t-76 -179.5t-118 -152t-152.5 -117.5t-180 -75.5t-200.5 -26.5t-200 26.5t-179.5 75.5t-152 117.5t-117 152t-75.5 179.5 t-27 200zM225 731q0 -88 23 -169.5t64.5 -152.5t100 -129.5t129.5 -100t152.5 -64.5t169.5 -23q89 0 171 23t153 64.5t129.5 100t100 129.5t64.5 152.5t23 169.5t-23 170t-64.5 153.5t-100 130t-129.5 100t-153 64.5t-171 23q-88 0 -169.5 -23t-152.5 -64.5t-129.5 -100 t-100 -130t-64.5 -153t-23 -170.5zM465 733q0 100 28 183t83.5 143t137 93.5t189.5 33.5q71 0 123.5 -11.5t87.5 -31t52.5 -46t17.5 -57.5q0 -22 -11 -40t-30 -30.5t-44.5 -19t-54.5 -6.5q0 29 -7.5 56.5t-24.5 50t-44.5 36t-68.5 13.5q-72 0 -122.5 -24t-82.5 -71 t-46.5 -115t-14.5 -157q0 -177 69 -272.5t199 -95.5q47 0 87 12t72 32t55.5 45t37.5 50q12 -9 20.5 -25.5t8.5 -38.5q0 -28 -19.5 -57t-58 -53t-96 -39t-134.5 -15q-102 0 -178.5 33t-128 93t-77 144t-25.5 187z" />
<glyph unicode="&#xaa;" horiz-adv-x="782" d="M72 987q0 102 81 150.5t248 56.5l88 4v59q0 31 -3.5 56.5t-14 44t-30.5 29t-54 10.5q-31 0 -50 -11t-29.5 -30t-14.5 -44.5t-4 -54.5q-78 0 -120 20.5t-42 68.5q0 35 21 59t57 39t84 22t102 7q68 0 118 -12t83.5 -38.5t50 -68.5t16.5 -103v-311q0 -46 19.5 -63t69.5 -17 v-69h-199l-37 94h-10q-18 -20 -39.5 -39.5t-48 -34.5t-58.5 -24t-71 -9q-99 0 -156 53t-57 156zM250 985q0 -64 27 -88.5t67 -24.5q34 0 61 12t45.5 34t28.5 52t10 66v97l-63 -3q-50 -1 -83.5 -11.5t-54 -29t-29.5 -44.5t-9 -60z" />
<glyph unicode="&#xab;" horiz-adv-x="1053" d="M133 520v66l313 356h103l-207 -389l207 -389h-103zM504 520v66l313 356h103l-207 -389l207 -389h-103z" />
<glyph unicode="&#xac;" d="M133 672v121h879v-541h-123v420h-756z" />
<glyph unicode="&#xad;" horiz-adv-x="635" d="M51 481v154h533v-154h-533z" />
<glyph unicode="&#xae;" horiz-adv-x="1731" d="M113 731q0 104 27 200.5t75.5 180t117 152.5t152 118t179.5 76t200 27t200.5 -27t180 -76t152.5 -118t118 -152.5t76 -180t27 -200.5t-27 -200t-76 -179.5t-118 -152t-152.5 -117.5t-180 -75.5t-200.5 -26.5t-200 26.5t-179.5 75.5t-152 117.5t-117 152t-75.5 179.5 t-27 200zM225 731q0 -88 23 -169.5t64.5 -152.5t100 -129.5t129.5 -100t152.5 -64.5t169.5 -23q89 0 171 23t153 64.5t129.5 100t100 129.5t64.5 152.5t23 169.5t-23 170t-64.5 153.5t-100 130t-129.5 100t-153 64.5t-171 23q-88 0 -169.5 -23t-152.5 -64.5t-129.5 -100 t-100 -130t-64.5 -153t-23 -170.5zM477 289v69h27q20 0 38 2.5t31.5 10t21.5 21.5t9 38v600q-1 24 -9 38.5t-21.5 22t-31.5 9.5t-38 2h-27v72h369q352 0 352 -244q0 -49 -16 -86t-42 -64t-59.5 -45.5t-68.5 -29.5l182 -293q10 -17 19.5 -27.5t22.5 -16.5t30.5 -8t42.5 -2 v-69h-217l-226 381h-108v-240q2 -24 10 -38t21.5 -21.5t31 -10t37.5 -2.5h29v-69h-410zM758 748h86q55 0 92 11t59 33t31.5 56t9.5 80q0 45 -11 77t-34.5 51.5t-61 28.5t-91.5 9h-80v-346z" />
<glyph unicode="&#xaf;" horiz-adv-x="940" d="M-10 1556v121h960v-121h-960z" />
<glyph unicode="&#xb0;" horiz-adv-x="819" d="M98 1151q0 65 24.5 121.5t66.5 98.5t98.5 66.5t120.5 24.5q65 0 121.5 -24.5t98.5 -66.5t66.5 -98.5t24.5 -121.5q0 -64 -24.5 -120.5t-66.5 -98.5t-98.5 -66t-121.5 -24q-64 0 -120.5 24t-98.5 66t-66.5 98.5t-24.5 120.5zM221 1151q0 -38 14.5 -72.5t40 -60t59.5 -40.5 t73 -15q40 0 74 15t59.5 40.5t40 60t14.5 72.5q0 40 -14.5 74.5t-40 60t-59.5 40.5t-74 15q-39 0 -73 -15t-59.5 -40.5t-40 -60t-14.5 -74.5z" />
<glyph unicode="&#xb1;" d="M133 0v121h879v-121h-879zM133 672v121h377v378h123v-378h379v-121h-379v-379h-123v379h-377z" />
<glyph unicode="&#xb2;" horiz-adv-x="819" d="M86 586v92l260 233q45 41 76 83t49.5 84.5t26.5 84.5t8 82q0 34 -6.5 62.5t-21 49.5t-37.5 32.5t-56 11.5q-37 0 -63 -14.5t-42 -39t-23 -57t-7 -67.5q-69 0 -108.5 17t-39.5 71q0 37 18 68.5t53.5 54.5t88.5 36t123 13q143 0 224 -56.5t81 -164.5q0 -48 -11 -90t-37 -84 t-68.5 -87t-106.5 -100l-217 -186h297q47 0 65.5 25t24.5 59l8 43h70l-6 -256h-623z" />
<glyph unicode="&#xb3;" horiz-adv-x="819" d="M82 741q0 45 25.5 73t68.5 28q0 -32 10.5 -63.5t32 -56.5t54 -40.5t77.5 -15.5q85 0 133.5 41.5t48.5 136.5q0 72 -52 114.5t-165 42.5h-67v84h67q39 0 72 12.5t58 35.5t39 55.5t14 73.5q0 68 -27 103.5t-90 35.5q-39 0 -65 -14.5t-41.5 -39t-22 -57t-6.5 -67.5 q-35 0 -63.5 3.5t-48 13.5t-30 27t-10.5 44q0 37 18.5 68.5t55 54.5t90 36t123.5 13q68 0 124 -14t96 -40t61.5 -63.5t21.5 -85.5q0 -45 -17 -80.5t-45.5 -62.5t-66.5 -46.5t-80 -31.5v-10q41 -7 84 -19.5t78.5 -35.5t58.5 -59.5t23 -92.5q0 -75 -33.5 -126.5t-86.5 -83 t-117 -45.5t-126 -14q-134 0 -204 46.5t-70 121.5z" />
<glyph unicode="&#xb4;" horiz-adv-x="1182" d="M391 1241v27q23 29 47.5 67t48 78.5t45 81t37.5 74.5h219v-21q-19 -27 -56 -67.5t-82 -84.5t-92.5 -85.5t-88.5 -69.5h-78z" />
<glyph unicode="&#xb5;" horiz-adv-x="1260" d="M176 -248q0 61 3.5 131.5t7.5 156t8.5 189.5t5.5 232v637h192v-688q0 -67 10 -122t33.5 -94.5t63 -61t98.5 -21.5q57 0 103 24t78 67.5t49.5 104.5t17.5 135v656h192v-834q0 -45 12 -78.5t30.5 -55.5t41.5 -33t45 -11h7v-86h-111q-84 0 -132 41.5t-67 122.5h-8 q-24 -41 -51.5 -75t-62 -58t-77 -37.5t-96.5 -13.5q-86 0 -147.5 31.5t-102.5 88.5q2 -85 7 -157t21.5 -126t48.5 -87.5t89 -42.5q0 -39 -8.5 -71.5t-26 -56.5t-44.5 -37.5t-64 -13.5q-32 0 -62 12t-53 40.5t-37 75.5t-14 116z" />
<glyph unicode="&#xb6;" horiz-adv-x="1264" d="M82 1192q0 82 17 149t55 115t98 74t147 26h781v-86h-27q-34 0 -65 -5t-53.5 -20.5t-36 -44.5t-13.5 -77v-1317q0 -48 13.5 -77t36 -44.5t53.5 -20.5t65 -5h27v-86h-320v1679h-194v-1679h-320v86h27q35 0 65.5 5t53 20.5t36 44.5t13.5 77v785h-146q-90 0 -150 32.5t-96 88 t-51.5 128t-15.5 152.5z" />
<glyph unicode="&#xb7;" horiz-adv-x="586" d="M166 729q0 40 10 67t27.5 43t41 22.5t50.5 6.5q26 0 49.5 -6.5t41 -22.5t28 -43t10.5 -67q0 -39 -10.5 -65.5t-28 -43t-41 -23.5t-49.5 -7q-27 0 -50.5 7t-41 23.5t-27.5 43t-10 65.5z" />
<glyph unicode="&#xb8;" horiz-adv-x="682" d="M123 -365q37 -8 74 -12t65 -4q59 0 92 31t33 84q0 60 -43.5 90t-110.5 35l43 159h97l-21 -88q100 -8 149.5 -57.5t49.5 -130.5q0 -109 -69.5 -171.5t-200.5 -62.5q-16 0 -36 1.5t-41 4.5t-42 7.5t-39 9.5v104z" />
<glyph unicode="&#xb9;" horiz-adv-x="819" d="M133 1325v70h103q23 0 49 3t50 12t43 24t28 39h102v-738q0 -26 7 -41.5t18.5 -23.5t27 -10.5t33.5 -2.5h94v-69h-543v69h95q18 0 33 2.5t26.5 10.5t18 23.5t6.5 41.5v590h-191z" />
<glyph unicode="&#xba;" horiz-adv-x="813" d="M72 1126q0 176 85 261.5t253 85.5q77 0 138 -21.5t104 -64.5t66 -108t23 -153q0 -176 -85 -262t-250 -86q-158 0 -246 86.5t-88 261.5zM250 1126q0 -133 35 -199.5t123 -66.5q86 0 121.5 66.5t35.5 199.5q0 131 -36.5 195.5t-122.5 64.5t-121 -64.5t-35 -195.5z" />
<glyph unicode="&#xbb;" horiz-adv-x="1053" d="M133 164l207 389l-207 389h103l313 -356v-66l-313 -356h-103zM504 164l207 389l-207 389h102l314 -356v-66l-314 -356h-102z" />
<glyph unicode="&#xbc;" horiz-adv-x="1720" d="M48 1325v70h103q23 0 49 3t50 12t43 24t28 39h102v-738q0 -26 7 -41.5t18.5 -23.5t27 -10.5t33.5 -2.5h94v-69h-543v69h95q18 0 33 2.5t26.5 10.5t18 23.5t6.5 41.5v590h-191zM430 0l731 1462h134l-729 -1462h-136zM930 261v61l383 564h164v-537h196v-88h-196v-113 q0 -26 7 -41.5t19 -23.5t27.5 -10.5t32.5 -2.5h41v-69h-451v69h57q17 0 32 2.5t26.5 10.5t18.5 23.5t7 41.5v113h-364zM1051 349h243v231q0 32 3 73t8 79q-8 -17 -17 -34t-14 -25z" />
<glyph unicode="&#xbd;" horiz-adv-x="1720" d="M48 1325v70h103q23 0 49 3t50 12t43 24t28 39h102v-738q0 -26 7 -41.5t18.5 -23.5t27 -10.5t33.5 -2.5h94v-69h-543v69h95q18 0 33 2.5t26.5 10.5t18 23.5t6.5 41.5v590h-191zM389 0l731 1462h134l-729 -1462h-136zM1016 1v92l260 233q45 41 76 83t49.5 84.5t26.5 84.5 t8 82q0 34 -6.5 62.5t-21 49.5t-37.5 32.5t-56 11.5q-37 0 -63 -14.5t-42 -39t-23 -57t-7 -67.5q-69 0 -108.5 17t-39.5 71q0 37 18 68.5t53.5 54.5t88.5 36t123 13q143 0 224 -56.5t81 -164.5q0 -48 -11 -90t-37 -84t-68.5 -87t-106.5 -100l-217 -186h297q47 0 65.5 25 t24.5 59l8 43h70l-6 -256h-623z" />
<glyph unicode="&#xbe;" horiz-adv-x="1720" d="M82 741q0 45 25.5 73t68.5 28q0 -32 10.5 -63.5t32 -56.5t54 -40.5t77.5 -15.5q85 0 133.5 41.5t48.5 136.5q0 72 -52 114.5t-165 42.5h-67v84h67q39 0 72 12.5t58 35.5t39 55.5t14 73.5q0 68 -27 103.5t-90 35.5q-39 0 -65 -14.5t-41.5 -39t-22 -57t-6.5 -67.5 q-35 0 -63.5 3.5t-48 13.5t-30 27t-10.5 44q0 37 18.5 68.5t55 54.5t90 36t123.5 13q68 0 124 -14t96 -40t61.5 -63.5t21.5 -85.5q0 -45 -17 -80.5t-45.5 -62.5t-66.5 -46.5t-80 -31.5v-10q41 -7 84 -19.5t78.5 -35.5t58.5 -59.5t23 -92.5q0 -75 -33.5 -126.5t-86.5 -83 t-117 -45.5t-126 -14q-134 0 -204 46.5t-70 121.5zM471 0l731 1462h134l-729 -1462h-136zM930 261v61l383 564h164v-537h196v-88h-196v-113q0 -26 7 -41.5t19 -23.5t27.5 -10.5t32.5 -2.5h41v-69h-451v69h57q17 0 32 2.5t26.5 10.5t18.5 23.5t7 41.5v113h-364zM1051 349h243 v231q0 32 3 73t8 79q-8 -17 -17 -34t-14 -25z" />
<glyph unicode="&#xbf;" horiz-adv-x="1024" d="M104 -18q0 84 26.5 153.5t77.5 126.5t125 103.5t169 85.5v231h125v-311q-89 -36 -149.5 -84t-97 -103t-52 -115t-15.5 -122q0 -53 13 -96.5t40 -74.5t69.5 -48t101.5 -17q64 0 107.5 21t70.5 57t39 83.5t12 100.5q37 0 68 -8.5t53.5 -25t35.5 -41.5t13 -58 q0 -49 -22.5 -91t-70 -72.5t-119.5 -48t-171 -17.5q-97 0 -179 25t-142 72.5t-94 116.5t-34 157zM438 969q0 39 10.5 65.5t28 43t41 23.5t49.5 7q27 0 50.5 -7t41 -23.5t27.5 -43t10 -65.5q0 -40 -10 -67t-27.5 -43t-41 -23t-50.5 -7q-26 0 -49.5 7t-41 23t-28 43t-10.5 67z " />
<glyph unicode="&#xc0;" horiz-adv-x="1444" d="M0 0v86h39q30 0 51 6.5t38 24.5t32.5 49t34.5 80l454 1216h160l463 -1267q12 -32 24.5 -53t29.5 -33.5t39 -17.5t52 -5h27v-86h-563v86h47q123 0 123 98q0 17 -4.5 35t-12.5 41l-82 229h-538l-78 -215q-9 -24 -14 -47.5t-5 -40.5q0 -52 33.5 -76t102.5 -24h47v-86h-500z M453 592h462l-127 358q-32 91 -58.5 170.5t-43.5 153.5q-7 -37 -16.5 -71.5t-20.5 -70.5t-25 -75.5t-32 -87.5zM407 1886v21h219q16 -34 37.5 -74.5t45.5 -81t49 -78.5t47 -67v-27h-78q-41 28 -89 69.5t-93 85.5t-82 84.5t-56 67.5z" />
<glyph unicode="&#xc1;" horiz-adv-x="1444" d="M0 0v86h39q30 0 51 6.5t38 24.5t32.5 49t34.5 80l454 1216h160l463 -1267q12 -32 24.5 -53t29.5 -33.5t39 -17.5t52 -5h27v-86h-563v86h47q123 0 123 98q0 17 -4.5 35t-12.5 41l-82 229h-538l-78 -215q-9 -24 -14 -47.5t-5 -40.5q0 -52 33.5 -76t102.5 -24h47v-86h-500z M453 592h462l-127 358q-32 91 -58.5 170.5t-43.5 153.5q-7 -37 -16.5 -71.5t-20.5 -70.5t-25 -75.5t-32 -87.5zM637 1579v27q23 29 47.5 67t48 78.5t45 81t37.5 74.5h219v-21q-19 -27 -56 -67.5t-82 -84.5t-92.5 -85.5t-88.5 -69.5h-78z" />
<glyph unicode="&#xc2;" horiz-adv-x="1444" d="M0 0v86h39q30 0 51 6.5t38 24.5t32.5 49t34.5 80l454 1216h160l463 -1267q12 -32 24.5 -53t29.5 -33.5t39 -17.5t52 -5h27v-86h-563v86h47q123 0 123 98q0 17 -4.5 35t-12.5 41l-82 229h-538l-78 -215q-9 -24 -14 -47.5t-5 -40.5q0 -52 33.5 -76t102.5 -24h47v-86h-500z M453 592h462l-127 358q-32 91 -58.5 170.5t-43.5 153.5q-7 -37 -16.5 -71.5t-20.5 -70.5t-25 -75.5t-32 -87.5zM422 1579v27q24 29 53 67t57.5 78.5t53.5 81t41 74.5h194q16 -34 41 -74.5t53.5 -81t57.5 -78.5t53 -67v-27h-80q-59 34 -118 84.5t-105 99.5 q-47 -49 -105 -99.5t-116 -84.5h-80z" />
<glyph unicode="&#xc3;" horiz-adv-x="1444" d="M0 0v86h39q30 0 51 6.5t38 24.5t32.5 49t34.5 80l454 1216h160l463 -1267q12 -32 24.5 -53t29.5 -33.5t39 -17.5t52 -5h27v-86h-563v86h47q123 0 123 98q0 17 -4.5 35t-12.5 41l-82 229h-538l-78 -215q-9 -24 -14 -47.5t-5 -40.5q0 -52 33.5 -76t102.5 -24h47v-86h-500z M453 592h462l-127 358q-32 91 -58.5 170.5t-43.5 153.5q-7 -37 -16.5 -71.5t-20.5 -70.5t-25 -75.5t-32 -87.5zM358 1600q3 47 16.5 90t40 77t66 54t94.5 20t99.5 -20t83 -44.5t72 -44.5t65.5 -20q30 0 48.5 9t29 24.5t15 35t7.5 40.5h92q-3 -47 -16.5 -90.5t-39.5 -77.5 t-65 -54t-94 -20t-99.5 20t-83 44.5t-72 44.5t-66.5 20q-31 0 -49 -9t-28.5 -24t-15.5 -34.5t-8 -40.5h-92z" />
<glyph unicode="&#xc4;" horiz-adv-x="1444" d="M0 0v86h39q30 0 51 6.5t38 24.5t32.5 49t34.5 80l454 1216h160l463 -1267q12 -32 24.5 -53t29.5 -33.5t39 -17.5t52 -5h27v-86h-563v86h47q123 0 123 98q0 17 -4.5 35t-12.5 41l-82 229h-538l-78 -215q-9 -24 -14 -47.5t-5 -40.5q0 -52 33.5 -76t102.5 -24h47v-86h-500z M453 592h462l-127 358q-32 91 -58.5 170.5t-43.5 153.5q-7 -37 -16.5 -71.5t-20.5 -70.5t-25 -75.5t-32 -87.5zM424 1747q0 32 8 54t22 35.5t33 19.5t41 6t41 -6t33.5 -19.5t22.5 -35.5t8 -54q0 -31 -8 -53t-22.5 -36t-33.5 -20t-41 -6q-45 0 -74.5 26t-29.5 89zM813 1747 q0 32 8 54t22 35.5t33 19.5t41 6t41 -6t33.5 -19.5t22.5 -35.5t8 -54q0 -31 -8 -53t-22.5 -36t-33.5 -20t-41 -6q-45 0 -74.5 26t-29.5 89z" />
<glyph unicode="&#xc5;" horiz-adv-x="1444" d="M0 0v86h39q30 0 51 6.5t38 24.5t32.5 49t34.5 80l454 1216h160l463 -1267q12 -32 24.5 -53t29.5 -33.5t39 -17.5t52 -5h27v-86h-563v86h47q123 0 123 98q0 17 -4.5 35t-12.5 41l-82 229h-538l-78 -215q-9 -24 -14 -47.5t-5 -40.5q0 -52 33.5 -76t102.5 -24h47v-86h-500z M453 592h462l-127 358q-32 91 -58.5 170.5t-43.5 153.5q-7 -37 -16.5 -71.5t-20.5 -70.5t-25 -75.5t-32 -87.5zM479 1585q0 54 19 96t52.5 70t78.5 42.5t96 14.5t96 -14.5t78.5 -42.5t52.5 -70t19 -96q0 -55 -19 -96.5t-52.5 -69.5t-78.5 -42.5t-96 -14.5t-96 14.5 t-78.5 42.5t-52.5 69.5t-19 96.5zM590 1585q0 -33 10.5 -56.5t29 -38t43 -21.5t52.5 -7t52.5 7t43 21.5t29 38t10.5 56.5t-10.5 56.5t-29 38t-43 21.5t-52.5 7t-52.5 -7t-43 -21.5t-29 -38t-10.5 -56.5z" />
<glyph unicode="&#xc6;" horiz-adv-x="1948" d="M0 0v86h33q54 0 96.5 38t85.5 122l592 1120l-160 10v86h1135l10 -358h-106l-11 88q-4 34 -15 64t-32.5 52.5t-54 36.5t-78.5 15h-344v-545h494v-100h-494v-613h395q48 0 82.5 13.5t57.5 36.5t36 53.5t19 64.5l14 88h107l-15 -358h-1097v86h26q34 0 64 4.5t52.5 18.5 t36.5 41.5t15 72.5v266h-471l-113 -215q-17 -32 -24.5 -61t-7.5 -47q0 -42 31.5 -61t91.5 -19h47v-86h-498zM526 592h418v768h-29q-25 -56 -66 -139t-92.5 -183.5t-110.5 -214.5t-120 -231z" />
<glyph unicode="&#xc7;" horiz-adv-x="1257" d="M117 733q0 166 42 304t124.5 237t205.5 154t285 55q105 0 182.5 -17.5t129 -48.5t77 -73t25.5 -91q0 -33 -13.5 -59.5t-37.5 -45t-56.5 -28.5t-70.5 -10q0 48 -12.5 95t-41 84.5t-74 61t-112.5 23.5q-116 0 -197 -42.5t-132 -124t-74 -201t-23 -273.5q0 -137 24 -251 t76 -195.5t132.5 -126.5t193.5 -45q75 0 132.5 14.5t101.5 38.5t77.5 55.5t59.5 65.5q17 -11 28 -30t11 -50q0 -39 -26.5 -79.5t-80.5 -73.5t-137 -54.5t-197 -21.5q-153 0 -269 54t-194.5 153t-118.5 238t-40 308zM514 -365q37 -8 74 -12t65 -4q59 0 92 31t33 84 q0 60 -43.5 90t-110.5 35l43 159h97l-21 -88q100 -8 149.5 -57.5t49.5 -130.5q0 -109 -69.5 -171.5t-200.5 -62.5q-16 0 -36 1.5t-41 4.5t-42 7.5t-39 9.5v104z" />
<glyph unicode="&#xc8;" horiz-adv-x="1276" d="M78 0v86h26q34 0 64.5 4.5t53.5 18.5t36.5 41.5t13.5 72.5v1006q0 48 -13 77t-36 44.5t-53.5 20.5t-65.5 5h-26v86h1032l10 -358h-106l-10 88q-4 34 -15.5 64.5t-33 53.5t-54 36.5t-78.5 13.5h-344v-545h494v-100h-494v-613h395q49 0 83.5 13.5t57.5 36.5t36 53.5 t18 64.5l14 88h107l-14 -358h-1098zM345 1886v21h219q16 -34 37.5 -74.5t45.5 -81t49 -78.5t47 -67v-27h-78q-41 28 -89 69.5t-93 85.5t-82 84.5t-56 67.5z" />
<glyph unicode="&#xc9;" horiz-adv-x="1276" d="M78 0v86h26q34 0 64.5 4.5t53.5 18.5t36.5 41.5t13.5 72.5v1006q0 48 -13 77t-36 44.5t-53.5 20.5t-65.5 5h-26v86h1032l10 -358h-106l-10 88q-4 34 -15.5 64.5t-33 53.5t-54 36.5t-78.5 13.5h-344v-545h494v-100h-494v-613h395q49 0 83.5 13.5t57.5 36.5t36 53.5 t18 64.5l14 88h107l-14 -358h-1098zM545 1579v27q23 29 47.5 67t48 78.5t45 81t37.5 74.5h219v-21q-19 -27 -56 -67.5t-82 -84.5t-92.5 -85.5t-88.5 -69.5h-78z" />
<glyph unicode="&#xca;" horiz-adv-x="1276" d="M78 0v86h26q34 0 64.5 4.5t53.5 18.5t36.5 41.5t13.5 72.5v1006q0 48 -13 77t-36 44.5t-53.5 20.5t-65.5 5h-26v86h1032l10 -358h-106l-10 88q-4 34 -15.5 64.5t-33 53.5t-54 36.5t-78.5 13.5h-344v-545h494v-100h-494v-613h395q49 0 83.5 13.5t57.5 36.5t36 53.5 t18 64.5l14 88h107l-14 -358h-1098zM350 1579v27q24 29 53 67t57.5 78.5t53.5 81t41 74.5h194q16 -34 41 -74.5t53.5 -81t57.5 -78.5t53 -67v-27h-80q-59 34 -118 84.5t-105 99.5q-47 -49 -105 -99.5t-116 -84.5h-80z" />
<glyph unicode="&#xcb;" horiz-adv-x="1276" d="M78 0v86h26q34 0 64.5 4.5t53.5 18.5t36.5 41.5t13.5 72.5v1006q0 48 -13 77t-36 44.5t-53.5 20.5t-65.5 5h-26v86h1032l10 -358h-106l-10 88q-4 34 -15.5 64.5t-33 53.5t-54 36.5t-78.5 13.5h-344v-545h494v-100h-494v-613h395q49 0 83.5 13.5t57.5 36.5t36 53.5 t18 64.5l14 88h107l-14 -358h-1098zM342 1747q0 32 8 54t22 35.5t33 19.5t41 6t41 -6t33.5 -19.5t22.5 -35.5t8 -54q0 -31 -8 -53t-22.5 -36t-33.5 -20t-41 -6q-45 0 -74.5 26t-29.5 89zM731 1747q0 32 8 54t22 35.5t33 19.5t41 6t41 -6t33.5 -19.5t22.5 -35.5t8 -54 q0 -31 -8 -53t-22.5 -36t-33.5 -20t-41 -6q-45 0 -74.5 26t-29.5 89z" />
<glyph unicode="&#xcc;" horiz-adv-x="752" d="M78 0v86h26q35 0 65.5 5t53.5 20.5t36 44.5t13 77v996q0 48 -13 77t-36 44.5t-53.5 20.5t-65.5 5h-26v86h596v-86h-27q-34 0 -65 -5t-53.5 -20.5t-36 -44.5t-13.5 -77v-996q0 -48 13.5 -77t36 -44.5t53.5 -20.5t65 -5h27v-86h-596zM75 1886v21h219q16 -34 37.5 -74.5 t45.5 -81t49 -78.5t47 -67v-27h-78q-41 28 -89 69.5t-93 85.5t-82 84.5t-56 67.5z" />
<glyph unicode="&#xcd;" horiz-adv-x="752" d="M78 0v86h26q35 0 65.5 5t53.5 20.5t36 44.5t13 77v996q0 48 -13 77t-36 44.5t-53.5 20.5t-65.5 5h-26v86h596v-86h-27q-34 0 -65 -5t-53.5 -20.5t-36 -44.5t-13.5 -77v-996q0 -48 13.5 -77t36 -44.5t53.5 -20.5t65 -5h27v-86h-596zM271 1579v27q23 29 47.5 67t48 78.5 t45 81t37.5 74.5h219v-21q-19 -27 -56 -67.5t-82 -84.5t-92.5 -85.5t-88.5 -69.5h-78z" />
<glyph unicode="&#xce;" horiz-adv-x="752" d="M78 0v86h26q35 0 65.5 5t53.5 20.5t36 44.5t13 77v996q0 48 -13 77t-36 44.5t-53.5 20.5t-65.5 5h-26v86h596v-86h-27q-34 0 -65 -5t-53.5 -20.5t-36 -44.5t-13.5 -77v-996q0 -48 13.5 -77t36 -44.5t53.5 -20.5t65 -5h27v-86h-596zM73 1579v27q24 29 53 67t57.5 78.5 t53.5 81t41 74.5h194q16 -34 41 -74.5t53.5 -81t57.5 -78.5t53 -67v-27h-80q-59 34 -118 84.5t-105 99.5q-47 -49 -105 -99.5t-116 -84.5h-80z" />
<glyph unicode="&#xcf;" horiz-adv-x="752" d="M78 0v86h26q35 0 65.5 5t53.5 20.5t36 44.5t13 77v996q0 48 -13 77t-36 44.5t-53.5 20.5t-65.5 5h-26v86h596v-86h-27q-34 0 -65 -5t-53.5 -20.5t-36 -44.5t-13.5 -77v-996q0 -48 13.5 -77t36 -44.5t53.5 -20.5t65 -5h27v-86h-596zM73 1747q0 32 8 54t22 35.5t33 19.5 t41 6t41 -6t33.5 -19.5t22.5 -35.5t8 -54q0 -31 -8 -53t-22.5 -36t-33.5 -20t-41 -6q-45 0 -74.5 26t-29.5 89zM462 1747q0 32 8 54t22 35.5t33 19.5t41 6t41 -6t33.5 -19.5t22.5 -35.5t8 -54q0 -31 -8 -53t-22.5 -36t-33.5 -20t-41 -6q-45 0 -74.5 26t-29.5 89z" />
<glyph unicode="&#xd0;" horiz-adv-x="1489" d="M78 0v86h26q35 0 65.5 5t53.5 20.5t36 44.5t13 77v482h-194v100h194v422q0 45 -13.5 72.5t-36.5 42.5t-53.5 19.5t-64.5 4.5h-26v86h627q158 0 282 -48.5t209.5 -141.5t130.5 -229t45 -310q0 -168 -42 -303.5t-125 -231t-208.5 -147t-291.5 -51.5h-627zM479 104h178 q122 0 213.5 41.5t152.5 121.5t91.5 197t30.5 269t-30.5 269t-91 196.5t-152 120.5t-212.5 41h-180v-545h348v-100h-348v-611z" />
<glyph unicode="&#xd1;" horiz-adv-x="1563" d="M78 0v86h26q35 0 65.5 5t53.5 20.5t36 44.5t13 77v1004q0 45 -13.5 72.5t-36.5 42.5t-53.5 19.5t-64.5 4.5h-26v86h375l733 -1132v907q0 45 -13.5 72.5t-36.5 42.5t-53.5 19.5t-64.5 4.5h-27v86h514v-86h-26q-35 0 -65.5 -5t-53.5 -20.5t-36 -44.5t-13 -77v-1229h-146 l-768 1180v-947q0 -48 13.5 -77t36 -44.5t53.5 -20.5t65 -5h27v-86h-514zM442 1600q3 47 16.5 90t40 77t66 54t94.5 20t99.5 -20t83 -44.5t72 -44.5t65.5 -20q30 0 48.5 9t29 24.5t15 35t7.5 40.5h92q-3 -47 -16.5 -90.5t-39.5 -77.5t-65 -54t-94 -20t-99.5 20t-83 44.5 t-72 44.5t-66.5 20q-31 0 -49 -9t-28.5 -24t-15.5 -34.5t-8 -40.5h-92z" />
<glyph unicode="&#xd2;" horiz-adv-x="1520" d="M115 735q0 170 40 308.5t120 236.5t202 151.5t285 53.5q155 0 274 -53.5t201 -152t124 -237t42 -309.5q0 -169 -42 -308t-124 -238t-202 -153t-275 -54q-163 0 -284 54t-201 153t-120 238.5t-40 309.5zM342 733q0 -152 22.5 -271.5t72.5 -202t129.5 -126t193.5 -43.5 t193.5 43.5t129 126t71.5 202t22 271.5t-22 271.5t-71.5 201.5t-128 125t-192.5 43t-194 -43t-130.5 -125t-73 -201.5t-22.5 -271.5zM463 1886v21h219q16 -34 37.5 -74.5t45.5 -81t49 -78.5t47 -67v-27h-78q-41 28 -89 69.5t-93 85.5t-82 84.5t-56 67.5z" />
<glyph unicode="&#xd3;" horiz-adv-x="1520" d="M115 735q0 170 40 308.5t120 236.5t202 151.5t285 53.5q155 0 274 -53.5t201 -152t124 -237t42 -309.5q0 -169 -42 -308t-124 -238t-202 -153t-275 -54q-163 0 -284 54t-201 153t-120 238.5t-40 309.5zM342 733q0 -152 22.5 -271.5t72.5 -202t129.5 -126t193.5 -43.5 t193.5 43.5t129 126t71.5 202t22 271.5t-22 271.5t-71.5 201.5t-128 125t-192.5 43t-194 -43t-130.5 -125t-73 -201.5t-22.5 -271.5zM649 1579v27q23 29 47.5 67t48 78.5t45 81t37.5 74.5h219v-21q-19 -27 -56 -67.5t-82 -84.5t-92.5 -85.5t-88.5 -69.5h-78z" />
<glyph unicode="&#xd4;" horiz-adv-x="1520" d="M115 735q0 170 40 308.5t120 236.5t202 151.5t285 53.5q155 0 274 -53.5t201 -152t124 -237t42 -309.5q0 -169 -42 -308t-124 -238t-202 -153t-275 -54q-163 0 -284 54t-201 153t-120 238.5t-40 309.5zM342 733q0 -152 22.5 -271.5t72.5 -202t129.5 -126t193.5 -43.5 t193.5 43.5t129 126t71.5 202t22 271.5t-22 271.5t-71.5 201.5t-128 125t-192.5 43t-194 -43t-130.5 -125t-73 -201.5t-22.5 -271.5zM459 1579v27q24 29 53 67t57.5 78.5t53.5 81t41 74.5h194q16 -34 41 -74.5t53.5 -81t57.5 -78.5t53 -67v-27h-80q-59 34 -118 84.5 t-105 99.5q-47 -49 -105 -99.5t-116 -84.5h-80z" />
<glyph unicode="&#xd5;" horiz-adv-x="1520" d="M115 735q0 170 40 308.5t120 236.5t202 151.5t285 53.5q155 0 274 -53.5t201 -152t124 -237t42 -309.5q0 -169 -42 -308t-124 -238t-202 -153t-275 -54q-163 0 -284 54t-201 153t-120 238.5t-40 309.5zM342 733q0 -152 22.5 -271.5t72.5 -202t129.5 -126t193.5 -43.5 t193.5 43.5t129 126t71.5 202t22 271.5t-22 271.5t-71.5 201.5t-128 125t-192.5 43t-194 -43t-130.5 -125t-73 -201.5t-22.5 -271.5zM381 1600q3 47 16.5 90t40 77t66 54t94.5 20t99.5 -20t83 -44.5t72 -44.5t65.5 -20q30 0 48.5 9t29 24.5t15 35t7.5 40.5h92 q-3 -47 -16.5 -90.5t-39.5 -77.5t-65 -54t-94 -20t-99.5 20t-83 44.5t-72 44.5t-66.5 20q-31 0 -49 -9t-28.5 -24t-15.5 -34.5t-8 -40.5h-92z" />
<glyph unicode="&#xd6;" horiz-adv-x="1520" d="M115 735q0 170 40 308.5t120 236.5t202 151.5t285 53.5q155 0 274 -53.5t201 -152t124 -237t42 -309.5q0 -169 -42 -308t-124 -238t-202 -153t-275 -54q-163 0 -284 54t-201 153t-120 238.5t-40 309.5zM342 733q0 -152 22.5 -271.5t72.5 -202t129.5 -126t193.5 -43.5 t193.5 43.5t129 126t71.5 202t22 271.5t-22 271.5t-71.5 201.5t-128 125t-192.5 43t-194 -43t-130.5 -125t-73 -201.5t-22.5 -271.5zM455 1747q0 32 8 54t22 35.5t33 19.5t41 6t41 -6t33.5 -19.5t22.5 -35.5t8 -54q0 -31 -8 -53t-22.5 -36t-33.5 -20t-41 -6q-45 0 -74.5 26 t-29.5 89zM844 1747q0 32 8 54t22 35.5t33 19.5t41 6t41 -6t33.5 -19.5t22.5 -35.5t8 -54q0 -31 -8 -53t-22.5 -36t-33.5 -20t-41 -6q-45 0 -74.5 26t-29.5 89z" />
<glyph unicode="&#xd7;" d="M145 395l340 340l-340 338l86 86l340 -340l340 342l86 -88l-340 -340l340 -340l-86 -86l-340 340l-340 -340z" />
<glyph unicode="&#xd8;" horiz-adv-x="1520" d="M115 735q0 170 40 308.5t120 236.5t202 151.5t285 53.5q91 0 169 -19.5t144 -54.5l76 135h119l-107 -192q118 -97 179 -255t61 -366q0 -169 -42 -308t-124 -238t-202 -153t-275 -54q-93 0 -172.5 17.5t-145.5 51.5l-71 -131h-121l104 188q-121 98 -180 258.5t-59 370.5z M342 733q0 -155 22.5 -273t73.5 -202l572 1034q-94 82 -248 82q-114 0 -194 -43t-130.5 -125t-73 -201.5t-22.5 -271.5zM510 170q95 -80 250 -80q114 0 193.5 43.5t129 126t71.5 202t22 271.5q0 153 -22.5 271.5t-72.5 201.5z" />
<glyph unicode="&#xd9;" horiz-adv-x="1468" d="M31 1376v86h596v-86h-27q-34 0 -65 -5t-53.5 -20.5t-36 -44.5t-13.5 -77v-799q0 -89 25.5 -151.5t71 -101.5t108 -57t137.5 -18q89 0 153.5 24t107 66.5t63 101t20.5 128.5v815q0 45 -13.5 72.5t-36.5 42.5t-53.5 19.5t-64.5 4.5h-26v86h514v-86h-27q-34 0 -65 -5 t-53.5 -20.5t-36 -44.5t-13.5 -77v-811q0 -102 -32.5 -183.5t-96 -138t-157.5 -86.5t-216 -30q-121 0 -217 25.5t-162.5 81t-101.5 143t-35 212.5v795q0 45 -13.5 72.5t-36.5 42.5t-53.5 19.5t-64.5 4.5h-26zM454 1886v21h219q16 -34 37.5 -74.5t45.5 -81t49 -78.5t47 -67 v-27h-78q-41 28 -89 69.5t-93 85.5t-82 84.5t-56 67.5z" />
<glyph unicode="&#xda;" horiz-adv-x="1468" d="M31 1376v86h596v-86h-27q-34 0 -65 -5t-53.5 -20.5t-36 -44.5t-13.5 -77v-799q0 -89 25.5 -151.5t71 -101.5t108 -57t137.5 -18q89 0 153.5 24t107 66.5t63 101t20.5 128.5v815q0 45 -13.5 72.5t-36.5 42.5t-53.5 19.5t-64.5 4.5h-26v86h514v-86h-27q-34 0 -65 -5 t-53.5 -20.5t-36 -44.5t-13.5 -77v-811q0 -102 -32.5 -183.5t-96 -138t-157.5 -86.5t-216 -30q-121 0 -217 25.5t-162.5 81t-101.5 143t-35 212.5v795q0 45 -13.5 72.5t-36.5 42.5t-53.5 19.5t-64.5 4.5h-26zM649 1579v27q23 29 47.5 67t48 78.5t45 81t37.5 74.5h219v-21 q-19 -27 -56 -67.5t-82 -84.5t-92.5 -85.5t-88.5 -69.5h-78z" />
<glyph unicode="&#xdb;" horiz-adv-x="1468" d="M31 1376v86h596v-86h-27q-34 0 -65 -5t-53.5 -20.5t-36 -44.5t-13.5 -77v-799q0 -89 25.5 -151.5t71 -101.5t108 -57t137.5 -18q89 0 153.5 24t107 66.5t63 101t20.5 128.5v815q0 45 -13.5 72.5t-36.5 42.5t-53.5 19.5t-64.5 4.5h-26v86h514v-86h-27q-34 0 -65 -5 t-53.5 -20.5t-36 -44.5t-13.5 -77v-811q0 -102 -32.5 -183.5t-96 -138t-157.5 -86.5t-216 -30q-121 0 -217 25.5t-162.5 81t-101.5 143t-35 212.5v795q0 45 -13.5 72.5t-36.5 42.5t-53.5 19.5t-64.5 4.5h-26zM471 1579v27q24 29 53 67t57.5 78.5t53.5 81t41 74.5h194 q16 -34 41 -74.5t53.5 -81t57.5 -78.5t53 -67v-27h-80q-59 34 -118 84.5t-105 99.5q-47 -49 -105 -99.5t-116 -84.5h-80z" />
<glyph unicode="&#xdc;" horiz-adv-x="1468" d="M31 1376v86h596v-86h-27q-34 0 -65 -5t-53.5 -20.5t-36 -44.5t-13.5 -77v-799q0 -89 25.5 -151.5t71 -101.5t108 -57t137.5 -18q89 0 153.5 24t107 66.5t63 101t20.5 128.5v815q0 45 -13.5 72.5t-36.5 42.5t-53.5 19.5t-64.5 4.5h-26v86h514v-86h-27q-34 0 -65 -5 t-53.5 -20.5t-36 -44.5t-13.5 -77v-811q0 -102 -32.5 -183.5t-96 -138t-157.5 -86.5t-216 -30q-121 0 -217 25.5t-162.5 81t-101.5 143t-35 212.5v795q0 45 -13.5 72.5t-36.5 42.5t-53.5 19.5t-64.5 4.5h-26zM477 1747q0 32 8 54t22 35.5t33 19.5t41 6t41 -6t33.5 -19.5 t22.5 -35.5t8 -54q0 -31 -8 -53t-22.5 -36t-33.5 -20t-41 -6q-45 0 -74.5 26t-29.5 89zM866 1747q0 32 8 54t22 35.5t33 19.5t41 6t41 -6t33.5 -19.5t22.5 -35.5t8 -54q0 -31 -8 -53t-22.5 -36t-33.5 -20t-41 -6q-45 0 -74.5 26t-29.5 89z" />
<glyph unicode="&#xdd;" horiz-adv-x="1280" d="M-10 1376v86h563v-86h-76q-28 0 -45.5 -5t-27.5 -14t-13.5 -21t-3.5 -25q0 -29 12.5 -58t24.5 -51l151 -274q36 -63 61 -124.5t42 -109.5q9 22 22.5 49t30 57.5t34.5 63t36 64.5l131 235q20 35 28.5 66.5t8.5 56.5q0 45 -32 67.5t-91 22.5h-60v86h500v-86h-24 q-22 0 -41.5 -7.5t-39.5 -26t-41.5 -49t-47.5 -76.5l-344 -607v-377q0 -48 13 -77t36 -44.5t53.5 -20.5t64.5 -5h48v-86h-637v86h47q34 0 64.5 4.5t53.5 18.5t36.5 41.5t13.5 72.5v387l-379 658q-17 29 -32 49.5t-31.5 33.5t-36.5 19t-46 6h-26zM567 1579v27q23 29 47.5 67 t48 78.5t45 81t37.5 74.5h219v-21q-19 -27 -56 -67.5t-82 -84.5t-92.5 -85.5t-88.5 -69.5h-78z" />
<glyph unicode="&#xde;" horiz-adv-x="1237" d="M78 0v86h26q35 0 65.5 5t53.5 20.5t36 44.5t13 77v996q0 48 -13 77t-36 44.5t-53.5 20.5t-65.5 5h-26v86h616v-86h-47q-34 0 -65 -5t-53.5 -20.5t-36 -44.5t-13.5 -77v-62h174q258 0 381 -103.5t123 -303.5q0 -91 -28.5 -172t-93.5 -142t-170 -96t-257 -35h-129v-82 q0 -48 13.5 -77t36 -44.5t53.5 -20.5t65 -5h47v-86h-616zM479 412h109q93 0 159 16.5t108 56t61.5 105t19.5 162.5q0 86 -17 146t-55 98t-98.5 55.5t-147.5 17.5h-139v-657z" />
<glyph unicode="&#xdf;" horiz-adv-x="1325" d="M47 0v86h27q35 0 65.5 5t53 20.5t36 44.5t13.5 77v768h-166v97h166v61q0 113 34 190t93.5 124.5t140 68.5t174.5 21q128 0 213 -36.5t136.5 -107t73.5 -174.5t23 -239h-149q-109 0 -160 -41.5t-51 -124.5q0 -31 10 -56.5t35 -49t66 -47t102 -52.5q77 -35 126 -74.5 t77 -82.5t38.5 -88t10.5 -91q0 -78 -24 -138t-68.5 -100t-108.5 -60.5t-145 -20.5q-72 0 -131 13.5t-101 41t-65 68t-23 94.5q0 41 12 68.5t30 43.5t38.5 22.5t36.5 6.5q0 -54 10.5 -101t34 -82.5t62 -56t94.5 -20.5q75 0 123.5 46t48.5 140q0 34 -7.5 63t-29.5 56t-61 54 t-101 57q-64 32 -113 63t-81.5 69t-49 86t-16.5 113q0 62 20.5 113t62 87.5t105 56.5t150.5 20q0 97 -14 166.5t-45 114.5t-79.5 66t-117.5 21q-62 0 -108.5 -20t-77.5 -56.5t-46.5 -88.5t-15.5 -117v-1188h-387z" />
<glyph unicode="&#xe0;" horiz-adv-x="1153" d="M102 307q0 163 116 242t351 86l170 6v123q0 55 -6 101.5t-26 80t-57.5 52t-100.5 18.5q-59 0 -95.5 -16.5t-57 -46.5t-27.5 -71t-7 -89q-85 0 -129.5 29t-44.5 100q0 53 29 90t79.5 60.5t117.5 34.5t143 11q94 0 164 -18.5t117 -60.5t70.5 -109.5t23.5 -165.5v-531 q0 -43 7 -71t22 -45t39.5 -24t58.5 -7h6v-86h-277l-32 176h-17q-32 -43 -62 -79t-66 -62t-81.5 -40.5t-109.5 -14.5q-68 0 -126.5 19.5t-101 60t-66.5 102t-24 145.5zM301 297q0 -96 40.5 -143.5t125.5 -47.5q62 0 112.5 20t86 57t54.5 90t19 118v166l-131 -6 q-87 -4 -145.5 -21.5t-94.5 -49t-51.5 -77.5t-15.5 -106zM269 1548v21h219q16 -34 37.5 -74.5t45.5 -81t49 -78.5t47 -67v-27h-78q-41 28 -89 69.5t-93 85.5t-82 84.5t-56 67.5z" />
<glyph unicode="&#xe1;" horiz-adv-x="1153" d="M102 307q0 163 116 242t351 86l170 6v123q0 55 -6 101.5t-26 80t-57.5 52t-100.5 18.5q-59 0 -95.5 -16.5t-57 -46.5t-27.5 -71t-7 -89q-85 0 -129.5 29t-44.5 100q0 53 29 90t79.5 60.5t117.5 34.5t143 11q94 0 164 -18.5t117 -60.5t70.5 -109.5t23.5 -165.5v-531 q0 -43 7 -71t22 -45t39.5 -24t58.5 -7h6v-86h-277l-32 176h-17q-32 -43 -62 -79t-66 -62t-81.5 -40.5t-109.5 -14.5q-68 0 -126.5 19.5t-101 60t-66.5 102t-24 145.5zM301 297q0 -96 40.5 -143.5t125.5 -47.5q62 0 112.5 20t86 57t54.5 90t19 118v166l-131 -6 q-87 -4 -145.5 -21.5t-94.5 -49t-51.5 -77.5t-15.5 -106zM471 1241v27q23 29 47.5 67t48 78.5t45 81t37.5 74.5h219v-21q-19 -27 -56 -67.5t-82 -84.5t-92.5 -85.5t-88.5 -69.5h-78z" />
<glyph unicode="&#xe2;" horiz-adv-x="1153" d="M102 307q0 163 116 242t351 86l170 6v123q0 55 -6 101.5t-26 80t-57.5 52t-100.5 18.5q-59 0 -95.5 -16.5t-57 -46.5t-27.5 -71t-7 -89q-85 0 -129.5 29t-44.5 100q0 53 29 90t79.5 60.5t117.5 34.5t143 11q94 0 164 -18.5t117 -60.5t70.5 -109.5t23.5 -165.5v-531 q0 -43 7 -71t22 -45t39.5 -24t58.5 -7h6v-86h-277l-32 176h-17q-32 -43 -62 -79t-66 -62t-81.5 -40.5t-109.5 -14.5q-68 0 -126.5 19.5t-101 60t-66.5 102t-24 145.5zM301 297q0 -96 40.5 -143.5t125.5 -47.5q62 0 112.5 20t86 57t54.5 90t19 118v166l-131 -6 q-87 -4 -145.5 -21.5t-94.5 -49t-51.5 -77.5t-15.5 -106zM261 1241v27q24 29 53 67t57.5 78.5t53.5 81t41 74.5h194q16 -34 41 -74.5t53.5 -81t57.5 -78.5t53 -67v-27h-80q-59 34 -118 84.5t-105 99.5q-47 -49 -105 -99.5t-116 -84.5h-80z" />
<glyph unicode="&#xe3;" horiz-adv-x="1153" d="M102 307q0 163 116 242t351 86l170 6v123q0 55 -6 101.5t-26 80t-57.5 52t-100.5 18.5q-59 0 -95.5 -16.5t-57 -46.5t-27.5 -71t-7 -89q-85 0 -129.5 29t-44.5 100q0 53 29 90t79.5 60.5t117.5 34.5t143 11q94 0 164 -18.5t117 -60.5t70.5 -109.5t23.5 -165.5v-531 q0 -43 7 -71t22 -45t39.5 -24t58.5 -7h6v-86h-277l-32 176h-17q-32 -43 -62 -79t-66 -62t-81.5 -40.5t-109.5 -14.5q-68 0 -126.5 19.5t-101 60t-66.5 102t-24 145.5zM301 297q0 -96 40.5 -143.5t125.5 -47.5q62 0 112.5 20t86 57t54.5 90t19 118v166l-131 -6 q-87 -4 -145.5 -21.5t-94.5 -49t-51.5 -77.5t-15.5 -106zM206 1262q3 47 16.5 90t40 77t66 54t94.5 20t99.5 -20t83 -44.5t72 -44.5t65.5 -20q30 0 48.5 9t29 24.5t15 35t7.5 40.5h92q-3 -47 -16.5 -90.5t-39.5 -77.5t-65 -54t-94 -20t-99.5 20t-83 44.5t-72 44.5t-66.5 20 q-31 0 -49 -9t-28.5 -24t-15.5 -34.5t-8 -40.5h-92z" />
<glyph unicode="&#xe4;" horiz-adv-x="1153" d="M102 307q0 163 116 242t351 86l170 6v123q0 55 -6 101.5t-26 80t-57.5 52t-100.5 18.5q-59 0 -95.5 -16.5t-57 -46.5t-27.5 -71t-7 -89q-85 0 -129.5 29t-44.5 100q0 53 29 90t79.5 60.5t117.5 34.5t143 11q94 0 164 -18.5t117 -60.5t70.5 -109.5t23.5 -165.5v-531 q0 -43 7 -71t22 -45t39.5 -24t58.5 -7h6v-86h-277l-32 176h-17q-32 -43 -62 -79t-66 -62t-81.5 -40.5t-109.5 -14.5q-68 0 -126.5 19.5t-101 60t-66.5 102t-24 145.5zM301 297q0 -96 40.5 -143.5t125.5 -47.5q62 0 112.5 20t86 57t54.5 90t19 118v166l-131 -6 q-87 -4 -145.5 -21.5t-94.5 -49t-51.5 -77.5t-15.5 -106zM257 1409q0 32 8 54t22 35.5t33 19.5t41 6t41 -6t33.5 -19.5t22.5 -35.5t8 -54q0 -31 -8 -53t-22.5 -36t-33.5 -20t-41 -6q-45 0 -74.5 26t-29.5 89zM646 1409q0 32 8 54t22 35.5t33 19.5t41 6t41 -6t33.5 -19.5 t22.5 -35.5t8 -54q0 -31 -8 -53t-22.5 -36t-33.5 -20t-41 -6q-45 0 -74.5 26t-29.5 89z" />
<glyph unicode="&#xe5;" horiz-adv-x="1153" d="M102 307q0 163 116 242t351 86l170 6v123q0 55 -6 101.5t-26 80t-57.5 52t-100.5 18.5q-59 0 -95.5 -16.5t-57 -46.5t-27.5 -71t-7 -89q-85 0 -129.5 29t-44.5 100q0 53 29 90t79.5 60.5t117.5 34.5t143 11q94 0 164 -18.5t117 -60.5t70.5 -109.5t23.5 -165.5v-531 q0 -43 7 -71t22 -45t39.5 -24t58.5 -7h6v-86h-277l-32 176h-17q-32 -43 -62 -79t-66 -62t-81.5 -40.5t-109.5 -14.5q-68 0 -126.5 19.5t-101 60t-66.5 102t-24 145.5zM301 297q0 -96 40.5 -143.5t125.5 -47.5q62 0 112.5 20t86 57t54.5 90t19 118v166l-131 -6 q-87 -4 -145.5 -21.5t-94.5 -49t-51.5 -77.5t-15.5 -106zM327 1444q0 54 19 96t52.5 70t78.5 42.5t96 14.5t96 -14.5t78.5 -42.5t52.5 -70t19 -96q0 -55 -19 -96.5t-52.5 -69.5t-78.5 -42.5t-96 -14.5t-96 14.5t-78.5 42.5t-52.5 69.5t-19 96.5zM438 1444q0 -33 10.5 -56.5 t29 -38t43 -21.5t52.5 -7t52.5 7t43 21.5t29 38t10.5 56.5t-10.5 56.5t-29 38t-43 21.5t-52.5 7t-52.5 -7t-43 -21.5t-29 -38t-10.5 -56.5z" />
<glyph unicode="&#xe6;" horiz-adv-x="1722" d="M102 307q0 163 116 242t351 86l170 6v123q0 55 -6 101.5t-26 80t-57.5 52t-100.5 18.5q-59 0 -95.5 -16.5t-57 -46.5t-27.5 -71t-7 -89q-85 0 -129.5 29t-44.5 100q0 53 29 90t79.5 60.5t117.5 34.5t143 11q116 0 195.5 -29.5t124.5 -95.5q114 125 317 125q99 0 178 -31 t134 -92.5t84.5 -153t29.5 -212.5v-94h-682q2 -112 21.5 -192.5t58 -132.5t97.5 -76.5t140 -24.5q45 0 87 11t78.5 30.5t66 45.5t49.5 56q14 -6 26.5 -25t12.5 -45q0 -31 -22 -66.5t-66 -65.5t-110.5 -50t-155.5 -20q-150 0 -254.5 59t-161.5 174q-19 -46 -53 -88 t-82.5 -74.5t-111 -51.5t-138.5 -19q-68 0 -126.5 19.5t-101 60t-66.5 102t-24 145.5zM301 297q0 -96 40.5 -143.5t125.5 -47.5q62 0 112.5 20t86 57t54.5 90t19 118v123v27v16l-131 -6q-87 -4 -145.5 -21.5t-94.5 -49t-51.5 -77.5t-15.5 -106zM942 645h471q0 81 -12 148 t-38 115t-68.5 74t-104.5 26q-115 0 -176 -92.5t-72 -270.5z" />
<glyph unicode="&#xe7;" horiz-adv-x="1008" d="M113 543q0 164 34.5 274.5t96 177.5t145 95t180.5 28q64 0 127.5 -12.5t114.5 -38.5t83 -65.5t32 -92.5q0 -71 -46 -100t-137 -29q0 48 -8 91t-27.5 75.5t-53 51t-85.5 18.5q-59 0 -106.5 -22t-81.5 -76t-52 -145t-18 -228q0 -218 72.5 -325t237.5 -107q95 0 166 40 t106 103q15 -12 25 -32t10 -48q0 -35 -22 -70t-65.5 -63t-108.5 -45.5t-152 -17.5q-102 0 -188 31.5t-148 99.5t-96.5 174.5t-34.5 257.5zM356 -365q37 -8 74 -12t65 -4q59 0 92 31t33 84q0 60 -43.5 90t-110.5 35l43 159h97l-21 -88q100 -8 149.5 -57.5t49.5 -130.5 q0 -109 -69.5 -171.5t-200.5 -62.5q-16 0 -36 1.5t-41 4.5t-42 7.5t-39 9.5v104z" />
<glyph unicode="&#xe8;" horiz-adv-x="1096" d="M113 541q0 287 118 432t336 145q99 0 178 -31t134 -92.5t84.5 -153t29.5 -212.5v-94h-682q2 -112 22.5 -192.5t59 -132.5t94.5 -76.5t129 -24.5q53 0 98.5 12t82.5 32t65.5 45.5t46.5 53.5q14 -6 26.5 -25t12.5 -45q0 -31 -22 -66.5t-67 -65.5t-112.5 -50t-158.5 -20 q-111 0 -199.5 37.5t-149.5 109.5t-93.5 176.5t-32.5 237.5zM315 645h471q0 81 -12 148t-38 115t-68.5 74t-104.5 26q-114 0 -175.5 -92.5t-72.5 -270.5zM285 1548v21h219q16 -34 37.5 -74.5t45.5 -81t49 -78.5t47 -67v-27h-78q-41 28 -89 69.5t-93 85.5t-82 84.5t-56 67.5z " />
<glyph unicode="&#xe9;" horiz-adv-x="1096" d="M113 541q0 287 118 432t336 145q99 0 178 -31t134 -92.5t84.5 -153t29.5 -212.5v-94h-682q2 -112 22.5 -192.5t59 -132.5t94.5 -76.5t129 -24.5q53 0 98.5 12t82.5 32t65.5 45.5t46.5 53.5q14 -6 26.5 -25t12.5 -45q0 -31 -22 -66.5t-67 -65.5t-112.5 -50t-158.5 -20 q-111 0 -199.5 37.5t-149.5 109.5t-93.5 176.5t-32.5 237.5zM315 645h471q0 81 -12 148t-38 115t-68.5 74t-104.5 26q-114 0 -175.5 -92.5t-72.5 -270.5zM473 1241v27q23 29 47.5 67t48 78.5t45 81t37.5 74.5h219v-21q-19 -27 -56 -67.5t-82 -84.5t-92.5 -85.5t-88.5 -69.5 h-78z" />
<glyph unicode="&#xea;" horiz-adv-x="1096" d="M113 541q0 287 118 432t336 145q99 0 178 -31t134 -92.5t84.5 -153t29.5 -212.5v-94h-682q2 -112 22.5 -192.5t59 -132.5t94.5 -76.5t129 -24.5q53 0 98.5 12t82.5 32t65.5 45.5t46.5 53.5q14 -6 26.5 -25t12.5 -45q0 -31 -22 -66.5t-67 -65.5t-112.5 -50t-158.5 -20 q-111 0 -199.5 37.5t-149.5 109.5t-93.5 176.5t-32.5 237.5zM315 645h471q0 81 -12 148t-38 115t-68.5 74t-104.5 26q-114 0 -175.5 -92.5t-72.5 -270.5zM255 1241v27q24 29 53 67t57.5 78.5t53.5 81t41 74.5h194q16 -34 41 -74.5t53.5 -81t57.5 -78.5t53 -67v-27h-80 q-59 34 -118 84.5t-105 99.5q-47 -49 -105 -99.5t-116 -84.5h-80z" />
<glyph unicode="&#xeb;" horiz-adv-x="1096" d="M113 541q0 287 118 432t336 145q99 0 178 -31t134 -92.5t84.5 -153t29.5 -212.5v-94h-682q2 -112 22.5 -192.5t59 -132.5t94.5 -76.5t129 -24.5q53 0 98.5 12t82.5 32t65.5 45.5t46.5 53.5q14 -6 26.5 -25t12.5 -45q0 -31 -22 -66.5t-67 -65.5t-112.5 -50t-158.5 -20 q-111 0 -199.5 37.5t-149.5 109.5t-93.5 176.5t-32.5 237.5zM315 645h471q0 81 -12 148t-38 115t-68.5 74t-104.5 26q-114 0 -175.5 -92.5t-72.5 -270.5zM253 1409q0 32 8 54t22 35.5t33 19.5t41 6t41 -6t33.5 -19.5t22.5 -35.5t8 -54q0 -31 -8 -53t-22.5 -36t-33.5 -20 t-41 -6q-45 0 -74.5 26t-29.5 89zM642 1409q0 32 8 54t22 35.5t33 19.5t41 6t41 -6t33.5 -19.5t22.5 -35.5t8 -54q0 -31 -8 -53t-22.5 -36t-33.5 -20t-41 -6q-45 0 -74.5 26t-29.5 89z" />
<glyph unicode="&#xec;" horiz-adv-x="655" d="M47 0v86h27q34 0 64.5 4.5t53.5 18.5t36.5 41.5t13.5 72.5v649q0 45 -13.5 72.5t-36.5 42.5t-53.5 20t-64.5 5h-6v86h366v-865q0 -48 13.5 -77t36 -44.5t53.5 -20.5t65 -5h27v-86h-582zM38 1548v21h219q16 -34 37.5 -74.5t45.5 -81t49 -78.5t47 -67v-27h-78 q-41 28 -89 69.5t-93 85.5t-82 84.5t-56 67.5z" />
<glyph unicode="&#xed;" horiz-adv-x="655" d="M47 0v86h27q34 0 64.5 4.5t53.5 18.5t36.5 41.5t13.5 72.5v649q0 45 -13.5 72.5t-36.5 42.5t-53.5 20t-64.5 5h-6v86h366v-865q0 -48 13.5 -77t36 -44.5t53.5 -20.5t65 -5h27v-86h-582zM240 1241v27q23 29 47.5 67t48 78.5t45 81t37.5 74.5h219v-21q-19 -27 -56 -67.5 t-82 -84.5t-92.5 -85.5t-88.5 -69.5h-78z" />
<glyph unicode="&#xee;" horiz-adv-x="655" d="M47 0v86h27q34 0 64.5 4.5t53.5 18.5t36.5 41.5t13.5 72.5v649q0 45 -13.5 72.5t-36.5 42.5t-53.5 20t-64.5 5h-6v86h366v-865q0 -48 13.5 -77t36 -44.5t53.5 -20.5t65 -5h27v-86h-582zM22 1241v27q24 29 53 67t57.5 78.5t53.5 81t41 74.5h194q16 -34 41 -74.5t53.5 -81 t57.5 -78.5t53 -67v-27h-80q-59 34 -118 84.5t-105 99.5q-47 -49 -105 -99.5t-116 -84.5h-80z" />
<glyph unicode="&#xef;" horiz-adv-x="655" d="M47 0v86h27q34 0 64.5 4.5t53.5 18.5t36.5 41.5t13.5 72.5v649q0 45 -13.5 72.5t-36.5 42.5t-53.5 20t-64.5 5h-6v86h366v-865q0 -48 13.5 -77t36 -44.5t53.5 -20.5t65 -5h27v-86h-582zM18 1409q0 32 8 54t22 35.5t33 19.5t41 6t41 -6t33.5 -19.5t22.5 -35.5t8 -54 q0 -31 -8 -53t-22.5 -36t-33.5 -20t-41 -6q-45 0 -74.5 26t-29.5 89zM407 1409q0 32 8 54t22 35.5t33 19.5t41 6t41 -6t33.5 -19.5t22.5 -35.5t8 -54q0 -31 -8 -53t-22.5 -36t-33.5 -20t-41 -6q-45 0 -74.5 26t-29.5 89z" />
<glyph unicode="&#xf0;" horiz-adv-x="1182" d="M113 510q0 266 121.5 396t359.5 130q68 0 126 -14t109 -39q-21 68 -74.5 143.5t-131.5 143.5l-256 -146v115l172 98q-51 34 -109 62.5t-123 48.5v111q94 -23 184 -60.5t171 -91.5l264 154v-117l-181 -103q72 -60 132 -137.5t102.5 -171.5t66 -203.5t23.5 -232.5 q0 -312 -122.5 -464t-358.5 -152q-111 0 -199 32.5t-149.5 98.5t-94 165.5t-32.5 233.5zM311 510q0 -105 15 -184t48.5 -132.5t87 -80.5t130.5 -27t130 27t86 80.5t47.5 132.5t14.5 184q0 104 -15 182.5t-48 131t-86.5 78.5t-130.5 26t-130 -26t-86 -78.5t-48 -131 t-15 -182.5z" />
<glyph unicode="&#xf1;" horiz-adv-x="1321" d="M57 0v86h17q35 0 65.5 5t53 20.5t36 44.5t13.5 77v639q0 45 -13.5 72.5t-36.5 42.5t-53.5 20t-64.5 5h-6v86h331l27 -166h10q32 57 67.5 93.5t75 57t84 28t93.5 7.5q81 0 144.5 -23.5t108 -72t68 -124.5t23.5 -181v-484q0 -48 11.5 -77t32.5 -44.5t50 -20.5t63 -5h7v-86 h-357v707q0 67 -12 119t-38.5 88t-69.5 54.5t-105 18.5q-70 0 -117.5 -27t-76.5 -73t-41.5 -106t-12.5 -126v-432q0 -45 13.5 -72.5t36.5 -41.5t53.5 -18.5t64.5 -4.5h6v-86h-551zM305 1262q3 47 16.5 90t40 77t66 54t94.5 20t99.5 -20t83 -44.5t72 -44.5t65.5 -20 q30 0 48.5 9t29 24.5t15 35t7.5 40.5h92q-3 -47 -16.5 -90.5t-39.5 -77.5t-65 -54t-94 -20t-99.5 20t-83 44.5t-72 44.5t-66.5 20q-31 0 -49 -9t-28.5 -24t-15.5 -34.5t-8 -40.5h-92z" />
<glyph unicode="&#xf2;" horiz-adv-x="1182" d="M113 551q0 287 121.5 427t359.5 140q111 0 199 -34.5t149.5 -105t94 -177t32.5 -250.5q0 -289 -122.5 -430t-358.5 -141q-111 0 -199 35t-149.5 106t-94 178.5t-32.5 251.5zM311 551q0 -114 15 -201t48.5 -145.5t87 -88.5t130.5 -30t130 30t86 88.5t47.5 145.5t14.5 201 t-15 200t-48 143.5t-86.5 86.5t-130.5 29t-130 -29t-86 -86.5t-48 -143.5t-15 -200zM298 1548v21h219q16 -34 37.5 -74.5t45.5 -81t49 -78.5t47 -67v-27h-78q-41 28 -89 69.5t-93 85.5t-82 84.5t-56 67.5z" />
<glyph unicode="&#xf3;" horiz-adv-x="1182" d="M113 551q0 287 121.5 427t359.5 140q111 0 199 -34.5t149.5 -105t94 -177t32.5 -250.5q0 -289 -122.5 -430t-358.5 -141q-111 0 -199 35t-149.5 106t-94 178.5t-32.5 251.5zM311 551q0 -114 15 -201t48.5 -145.5t87 -88.5t130.5 -30t130 30t86 88.5t47.5 145.5t14.5 201 t-15 200t-48 143.5t-86.5 86.5t-130.5 29t-130 -29t-86 -86.5t-48 -143.5t-15 -200zM512 1241v27q23 29 47.5 67t48 78.5t45 81t37.5 74.5h219v-21q-19 -27 -56 -67.5t-82 -84.5t-92.5 -85.5t-88.5 -69.5h-78z" />
<glyph unicode="&#xf4;" horiz-adv-x="1182" d="M113 551q0 287 121.5 427t359.5 140q111 0 199 -34.5t149.5 -105t94 -177t32.5 -250.5q0 -289 -122.5 -430t-358.5 -141q-111 0 -199 35t-149.5 106t-94 178.5t-32.5 251.5zM311 551q0 -114 15 -201t48.5 -145.5t87 -88.5t130.5 -30t130 30t86 88.5t47.5 145.5t14.5 201 t-15 200t-48 143.5t-86.5 86.5t-130.5 29t-130 -29t-86 -86.5t-48 -143.5t-15 -200zM284 1241v27q24 29 53 67t57.5 78.5t53.5 81t41 74.5h194q16 -34 41 -74.5t53.5 -81t57.5 -78.5t53 -67v-27h-80q-59 34 -118 84.5t-105 99.5q-47 -49 -105 -99.5t-116 -84.5h-80z" />
<glyph unicode="&#xf5;" horiz-adv-x="1182" d="M113 551q0 287 121.5 427t359.5 140q111 0 199 -34.5t149.5 -105t94 -177t32.5 -250.5q0 -289 -122.5 -430t-358.5 -141q-111 0 -199 35t-149.5 106t-94 178.5t-32.5 251.5zM311 551q0 -114 15 -201t48.5 -145.5t87 -88.5t130.5 -30t130 30t86 88.5t47.5 145.5t14.5 201 t-15 200t-48 143.5t-86.5 86.5t-130.5 29t-130 -29t-86 -86.5t-48 -143.5t-15 -200zM220 1262q3 47 16.5 90t40 77t66 54t94.5 20t99.5 -20t83 -44.5t72 -44.5t65.5 -20q30 0 48.5 9t29 24.5t15 35t7.5 40.5h92q-3 -47 -16.5 -90.5t-39.5 -77.5t-65 -54t-94 -20t-99.5 20 t-83 44.5t-72 44.5t-66.5 20q-31 0 -49 -9t-28.5 -24t-15.5 -34.5t-8 -40.5h-92z" />
<glyph unicode="&#xf6;" horiz-adv-x="1182" d="M113 551q0 287 121.5 427t359.5 140q111 0 199 -34.5t149.5 -105t94 -177t32.5 -250.5q0 -289 -122.5 -430t-358.5 -141q-111 0 -199 35t-149.5 106t-94 178.5t-32.5 251.5zM311 551q0 -114 15 -201t48.5 -145.5t87 -88.5t130.5 -30t130 30t86 88.5t47.5 145.5t14.5 201 t-15 200t-48 143.5t-86.5 86.5t-130.5 29t-130 -29t-86 -86.5t-48 -143.5t-15 -200zM284 1409q0 32 8 54t22 35.5t33 19.5t41 6t41 -6t33.5 -19.5t22.5 -35.5t8 -54q0 -31 -8 -53t-22.5 -36t-33.5 -20t-41 -6q-45 0 -74.5 26t-29.5 89zM673 1409q0 32 8 54t22 35.5t33 19.5 t41 6t41 -6t33.5 -19.5t22.5 -35.5t8 -54q0 -31 -8 -53t-22.5 -36t-33.5 -20t-41 -6q-45 0 -74.5 26t-29.5 89z" />
<glyph unicode="&#xf7;" d="M133 672v121h879v-121h-879zM469 344q0 32 8 54t22 35t33 18.5t41 5.5t41 -5.5t33.5 -18.5t22.5 -35t8 -54q0 -31 -8 -53t-22.5 -35t-33.5 -19t-41 -6q-45 0 -74.5 25t-29.5 88zM469 1120q0 32 8 54t22 35t33 18.5t41 5.5t41 -5.5t33.5 -18.5t22.5 -35t8 -54 q0 -31 -8 -52.5t-22.5 -35t-33.5 -19t-41 -5.5t-41 5.5t-33 19t-22 35t-8 52.5z" />
<glyph unicode="&#xf8;" horiz-adv-x="1182" d="M113 551q0 287 121.5 427t359.5 140q74 0 137.5 -16t116.5 -47l78 125h118l-114 -189q68 -69 103.5 -178.5t35.5 -261.5q0 -289 -122.5 -430t-358.5 -141q-71 0 -133 14t-113 43l-74 -119h-121l111 180q-71 72 -108 183.5t-37 269.5zM311 551q0 -94 10 -169t31 -132 l424 686q-68 74 -186 74q-77 0 -130 -29t-86 -86.5t-48 -143.5t-15 -200zM412 152q32 -32 76.5 -49t103.5 -17q77 0 130 30t86 88.5t47.5 145.5t14.5 201q0 177 -36 285z" />
<glyph unicode="&#xf9;" horiz-adv-x="1300" d="M47 1012v86h367v-707q0 -67 10.5 -119t35 -88t66 -54.5t103.5 -18.5q68 0 116.5 24t80 67.5t46.5 104.5t15 135v422q0 48 -13.5 77.5t-36 45t-53 20.5t-65.5 5h-6v86h366v-875q0 -45 13.5 -72.5t36.5 -41.5t53.5 -18.5t64.5 -4.5h6v-86h-325l-27 166h-10 q-31 -58 -68.5 -94t-79.5 -56.5t-88 -28t-96 -7.5q-81 0 -144 23t-106 72t-65.5 125t-22.5 181v491q0 45 -13.5 72.5t-36.5 42.5t-53.5 20t-64.5 5h-6zM314 1548v21h219q16 -34 37.5 -74.5t45.5 -81t49 -78.5t47 -67v-27h-78q-41 28 -89 69.5t-93 85.5t-82 84.5t-56 67.5z " />
<glyph unicode="&#xfa;" horiz-adv-x="1300" d="M47 1012v86h367v-707q0 -67 10.5 -119t35 -88t66 -54.5t103.5 -18.5q68 0 116.5 24t80 67.5t46.5 104.5t15 135v422q0 48 -13.5 77.5t-36 45t-53 20.5t-65.5 5h-6v86h366v-875q0 -45 13.5 -72.5t36.5 -41.5t53.5 -18.5t64.5 -4.5h6v-86h-325l-27 166h-10 q-31 -58 -68.5 -94t-79.5 -56.5t-88 -28t-96 -7.5q-81 0 -144 23t-106 72t-65.5 125t-22.5 181v491q0 45 -13.5 72.5t-36.5 42.5t-53.5 20t-64.5 5h-6zM541 1241v27q23 29 47.5 67t48 78.5t45 81t37.5 74.5h219v-21q-19 -27 -56 -67.5t-82 -84.5t-92.5 -85.5t-88.5 -69.5 h-78z" />
<glyph unicode="&#xfb;" horiz-adv-x="1300" d="M47 1012v86h367v-707q0 -67 10.5 -119t35 -88t66 -54.5t103.5 -18.5q68 0 116.5 24t80 67.5t46.5 104.5t15 135v422q0 48 -13.5 77.5t-36 45t-53 20.5t-65.5 5h-6v86h366v-875q0 -45 13.5 -72.5t36.5 -41.5t53.5 -18.5t64.5 -4.5h6v-86h-325l-27 166h-10 q-31 -58 -68.5 -94t-79.5 -56.5t-88 -28t-96 -7.5q-81 0 -144 23t-106 72t-65.5 125t-22.5 181v491q0 45 -13.5 72.5t-36.5 42.5t-53.5 20t-64.5 5h-6zM342 1241v27q24 29 53 67t57.5 78.5t53.5 81t41 74.5h194q16 -34 41 -74.5t53.5 -81t57.5 -78.5t53 -67v-27h-80 q-59 34 -118 84.5t-105 99.5q-47 -49 -105 -99.5t-116 -84.5h-80z" />
<glyph unicode="&#xfc;" horiz-adv-x="1300" d="M47 1012v86h367v-707q0 -67 10.5 -119t35 -88t66 -54.5t103.5 -18.5q68 0 116.5 24t80 67.5t46.5 104.5t15 135v422q0 48 -13.5 77.5t-36 45t-53 20.5t-65.5 5h-6v86h366v-875q0 -45 13.5 -72.5t36.5 -41.5t53.5 -18.5t64.5 -4.5h6v-86h-325l-27 166h-10 q-31 -58 -68.5 -94t-79.5 -56.5t-88 -28t-96 -7.5q-81 0 -144 23t-106 72t-65.5 125t-22.5 181v491q0 45 -13.5 72.5t-36.5 42.5t-53.5 20t-64.5 5h-6zM348 1409q0 32 8 54t22 35.5t33 19.5t41 6t41 -6t33.5 -19.5t22.5 -35.5t8 -54q0 -31 -8 -53t-22.5 -36t-33.5 -20 t-41 -6q-45 0 -74.5 26t-29.5 89zM737 1409q0 32 8 54t22 35.5t33 19.5t41 6t41 -6t33.5 -19.5t22.5 -35.5t8 -54q0 -31 -8 -53t-22.5 -36t-33.5 -20t-41 -6q-45 0 -74.5 26t-29.5 89z" />
<glyph unicode="&#xfd;" horiz-adv-x="1157" d="M8 1012v86h492v-86h-6q-62 0 -92.5 -24t-30.5 -75q0 -17 3.5 -34.5t12.5 -40.5l150 -365q14 -35 29.5 -76.5t29 -82t24.5 -76.5t15 -62h6q11 45 30.5 109.5t45.5 138.5l137 399q9 25 13.5 48t4.5 40q0 53 -33.5 77t-101.5 24h-6v86h426v-86h-6q-30 0 -51.5 -6.5 t-39 -24.5t-32.5 -49t-33 -80l-311 -860q-36 -99 -68 -174t-67 -128.5t-76.5 -88.5t-94.5 -56t-122 -29t-160 -8h-18v97q104 0 179 31t129.5 85t91 127.5t61.5 159.5l-379 895q-14 32 -27 52.5t-29.5 33.5t-38 18t-51.5 5h-6zM504 1241v27q23 29 47.5 67t48 78.5t45 81 t37.5 74.5h219v-21q-19 -27 -56 -67.5t-82 -84.5t-92.5 -85.5t-88.5 -69.5h-78z" />
<glyph unicode="&#xfe;" horiz-adv-x="1257" d="M37 -406h16q34 0 65 5t53.5 20.5t36 45t13.5 77.5v1589q0 45 -13.5 72.5t-36.5 42.5t-53.5 19.5t-64.5 4.5h-16v86h377v-376q0 -35 -1 -80.5t-3 -87.5q-2 -48 -4 -99h8q23 47 52 85t67 64.5t86 41t108 14.5q101 0 179 -33.5t131 -103t80.5 -176.5t27.5 -254 q0 -148 -27.5 -256t-80.5 -178t-131 -103.5t-179 -33.5q-59 0 -107 13t-86.5 37t-68 57t-51.5 73h-8q2 -53 4 -99q1 -20 1.5 -40t1 -38t1 -32.5t0.5 -22.5v-196q0 -45 13.5 -72.5t36.5 -42t53.5 -19t64.5 -4.5h6v-86h-551v86zM414 551q0 -107 13.5 -189t46 -138t86 -84.5 t134.5 -28.5q67 0 115 28.5t78.5 84.5t44.5 138.5t14 190.5q0 218 -59 326t-195 108q-80 0 -133.5 -26.5t-85.5 -80.5t-45.5 -136t-13.5 -193z" />
<glyph unicode="&#xff;" horiz-adv-x="1157" d="M8 1012v86h492v-86h-6q-62 0 -92.5 -24t-30.5 -75q0 -17 3.5 -34.5t12.5 -40.5l150 -365q14 -35 29.5 -76.5t29 -82t24.5 -76.5t15 -62h6q11 45 30.5 109.5t45.5 138.5l137 399q9 25 13.5 48t4.5 40q0 53 -33.5 77t-101.5 24h-6v86h426v-86h-6q-30 0 -51.5 -6.5 t-39 -24.5t-32.5 -49t-33 -80l-311 -860q-36 -99 -68 -174t-67 -128.5t-76.5 -88.5t-94.5 -56t-122 -29t-160 -8h-18v97q104 0 179 31t129.5 85t91 127.5t61.5 159.5l-379 895q-14 32 -27 52.5t-29.5 33.5t-38 18t-51.5 5h-6zM320 1409q0 32 8 54t22 35.5t33 19.5t41 6 t41 -6t33.5 -19.5t22.5 -35.5t8 -54q0 -31 -8 -53t-22.5 -36t-33.5 -20t-41 -6q-45 0 -74.5 26t-29.5 89zM709 1409q0 32 8 54t22 35.5t33 19.5t41 6t41 -6t33.5 -19.5t22.5 -35.5t8 -54q0 -31 -8 -53t-22.5 -36t-33.5 -20t-41 -6q-45 0 -74.5 26t-29.5 89z" />
<glyph unicode="&#x131;" horiz-adv-x="655" d="M47 0v86h27q34 0 64.5 4.5t53.5 18.5t36.5 41.5t13.5 72.5v649q0 45 -13.5 72.5t-36.5 42.5t-53.5 20t-64.5 5h-6v86h366v-865q0 -48 13.5 -77t36 -44.5t53.5 -20.5t65 -5h27v-86h-582z" />
<glyph unicode="&#x152;" horiz-adv-x="1964" d="M115 735q0 170 40 308.5t120 236.5t202 151.5t285 53.5q24 0 52.5 -1.5t57 -4.5t54.5 -7t47 -10h825l10 -358h-106l-10 88q-4 34 -15.5 64.5t-33 53.5t-54 36.5t-78.5 13.5h-344v-545h494v-100h-494v-613h396q48 0 82.5 13.5t57.5 36.5t36 53.5t18 64.5l15 88h106 l-14 -358h-893q-21 -5 -47.5 -8.5t-55 -6t-56.5 -4t-52 -1.5q-163 0 -284 54t-201 153t-120 238.5t-40 309.5zM342 733q0 -152 22.5 -271.5t72.5 -202t129.5 -126t193.5 -43.5q60 0 110 8.5t91 22.5v1218q-41 17 -90 26t-109 9q-114 0 -194 -43t-130.5 -125t-73 -201.5 t-22.5 -271.5z" />
<glyph unicode="&#x153;" horiz-adv-x="1853" d="M113 551q0 287 121.5 427t359.5 140q124 0 217.5 -49t155.5 -149q58 100 147.5 149t210.5 49q99 0 178 -31t134 -92.5t84.5 -153t29.5 -212.5v-94h-682q2 -99 19 -177.5t53 -134t93 -85t140 -29.5q53 0 98.5 12t82.5 32t65.5 45.5t46.5 53.5q14 -6 26.5 -25t12.5 -45 q0 -31 -22 -66.5t-67 -65.5t-112.5 -50t-158.5 -20q-130 0 -221.5 52t-151.5 152q-119 -204 -385 -204q-111 0 -199 35t-149.5 106t-94 178.5t-32.5 251.5zM311 551q0 -114 15 -201t48.5 -145.5t87 -88.5t130.5 -30q76 0 128.5 29t85.5 86.5t48 142.5t16 197v28 q-1 110 -17 192.5t-49 138t-86 83t-128 27.5q-77 0 -130 -29t-86 -86.5t-48 -143.5t-15 -200zM1073 645h471q0 81 -12 148t-38 115t-68.5 74t-104.5 26q-115 0 -176 -92.5t-72 -270.5z" />
<glyph unicode="&#x178;" horiz-adv-x="1280" d="M-10 1376v86h563v-86h-76q-28 0 -45.5 -5t-27.5 -14t-13.5 -21t-3.5 -25q0 -29 12.5 -58t24.5 -51l151 -274q36 -63 61 -124.5t42 -109.5q9 22 22.5 49t30 57.5t34.5 63t36 64.5l131 235q20 35 28.5 66.5t8.5 56.5q0 45 -32 67.5t-91 22.5h-60v86h500v-86h-24 q-22 0 -41.5 -7.5t-39.5 -26t-41.5 -49t-47.5 -76.5l-344 -607v-377q0 -48 13 -77t36 -44.5t53.5 -20.5t64.5 -5h48v-86h-637v86h47q34 0 64.5 4.5t53.5 18.5t36.5 41.5t13.5 72.5v387l-379 658q-17 29 -32 49.5t-31.5 33.5t-36.5 19t-46 6h-26zM359 1747q0 32 8 54t22 35.5 t33 19.5t41 6t41 -6t33.5 -19.5t22.5 -35.5t8 -54q0 -31 -8 -53t-22.5 -36t-33.5 -20t-41 -6q-45 0 -74.5 26t-29.5 89zM748 1747q0 32 8 54t22 35.5t33 19.5t41 6t41 -6t33.5 -19.5t22.5 -35.5t8 -54q0 -31 -8 -53t-22.5 -36t-33.5 -20t-41 -6q-45 0 -74.5 26t-29.5 89z " />
<glyph unicode="&#x2c6;" horiz-adv-x="1182" d="M289 1241v27q24 29 53 67t57.5 78.5t53.5 81t41 74.5h194q16 -34 41 -74.5t53.5 -81t57.5 -78.5t53 -67v-27h-80q-59 34 -118 84.5t-105 99.5q-47 -49 -105 -99.5t-116 -84.5h-80z" />
<glyph unicode="&#x2da;" horiz-adv-x="682" d="M94 1444q0 54 19 96t52.5 70t78.5 42.5t96 14.5t96 -14.5t78.5 -42.5t52.5 -70t19 -96q0 -55 -19 -96.5t-52.5 -69.5t-78.5 -42.5t-96 -14.5t-96 14.5t-78.5 42.5t-52.5 69.5t-19 96.5zM205 1444q0 -33 10.5 -56.5t29 -38t43 -21.5t52.5 -7t52.5 7t43 21.5t29 38 t10.5 56.5t-10.5 56.5t-29 38t-43 21.5t-52.5 7t-52.5 -7t-43 -21.5t-29 -38t-10.5 -56.5z" />
<glyph unicode="&#x2dc;" horiz-adv-x="1182" d="M225 1262q3 47 16.5 90t40 77t66 54t94.5 20t99.5 -20t83 -44.5t72 -44.5t65.5 -20q30 0 48.5 9t29 24.5t15 35t7.5 40.5h92q-3 -47 -16.5 -90.5t-39.5 -77.5t-65 -54t-94 -20t-99.5 20t-83 44.5t-72 44.5t-66.5 20q-31 0 -49 -9t-28.5 -24t-15.5 -34.5t-8 -40.5h-92z " />
<glyph unicode="&#x2000;" horiz-adv-x="953" />
<glyph unicode="&#x2001;" horiz-adv-x="1907" />
<glyph unicode="&#x2002;" horiz-adv-x="953" />
<glyph unicode="&#x2003;" horiz-adv-x="1907" />
<glyph unicode="&#x2004;" horiz-adv-x="635" />
<glyph unicode="&#x2005;" horiz-adv-x="476" />
<glyph unicode="&#x2006;" horiz-adv-x="317" />
<glyph unicode="&#x2007;" horiz-adv-x="317" />
<glyph unicode="&#x2008;" horiz-adv-x="238" />
<glyph unicode="&#x2009;" horiz-adv-x="381" />
<glyph unicode="&#x200a;" horiz-adv-x="105" />
<glyph unicode="&#x2010;" horiz-adv-x="635" d="M51 481v154h533v-154h-533z" />
<glyph unicode="&#x2011;" horiz-adv-x="635" d="M51 481v154h533v-154h-533z" />
<glyph unicode="&#x2012;" horiz-adv-x="635" d="M51 481v154h533v-154h-533z" />
<glyph unicode="&#x2013;" horiz-adv-x="1024" d="M-10 489v121h1044v-121h-1044z" />
<glyph unicode="&#x2014;" horiz-adv-x="2048" d="M-10 489v121h2068v-121h-2068z" />
<glyph unicode="&#x2018;" horiz-adv-x="512" d="M115 1063q0 65 18 126t58.5 113t104.5 93.5t155 68.5v-86q-101 -32 -148 -78t-47 -106q0 -20 11 -33.5t28 -24t36 -20.5t36 -24t28 -34.5t11 -51.5q0 -59 -38.5 -90t-95.5 -31q-31 0 -59.5 11.5t-50.5 34t-34.5 56t-12.5 76.5z" />
<glyph unicode="&#x2019;" horiz-adv-x="512" d="M61 883v86q101 32 148 78t47 106q0 20 -11 33.5t-28 24t-36 20.5t-36 24t-28 34.5t-11 51.5q0 59 38.5 90t95.5 31q32 0 60 -11.5t50 -34t34.5 -56t12.5 -76.5q0 -65 -18 -126t-58.5 -113t-104 -93.5t-155.5 -68.5z" />
<glyph unicode="&#x201a;" horiz-adv-x="512" d="M61 -229q101 32 148 78t47 106q0 20 -11 33.5t-28 24t-36 20.5t-36 24t-28 34.5t-11 51.5q0 59 38.5 90t95.5 31q32 0 60 -11.5t50 -34t34.5 -56t12.5 -76.5q0 -65 -18 -126t-58.5 -113t-104 -93.5t-155.5 -68.5v86z" />
<glyph unicode="&#x201c;" horiz-adv-x="922" d="M115 1063q0 65 18 126t58.5 113t104.5 93.5t155 68.5v-86q-101 -32 -148 -78t-47 -106q0 -20 11 -33.5t28 -24t36 -20.5t36 -24t28 -34.5t11 -51.5q0 -59 -38.5 -90t-95.5 -31q-31 0 -59.5 11.5t-50.5 34t-34.5 56t-12.5 76.5zM524 1063q0 65 18 126t58.5 113t104.5 93.5 t155 68.5v-86q-100 -32 -147 -78t-47 -106q0 -20 11 -33.5t27.5 -24t36 -20.5t36 -24t27.5 -34.5t11 -51.5q0 -59 -38 -90t-95 -31q-31 0 -60 11.5t-50.5 34t-34.5 56t-13 76.5z" />
<glyph unicode="&#x201d;" horiz-adv-x="922" d="M61 883v86q101 32 148 78t47 106q0 20 -11 33.5t-28 24t-36 20.5t-36 24t-28 34.5t-11 51.5q0 59 38.5 90t95.5 31q32 0 60 -11.5t50 -34t34.5 -56t12.5 -76.5q0 -65 -18 -126t-58.5 -113t-104 -93.5t-155.5 -68.5zM471 883v86q100 32 147.5 78t47.5 106q0 20 -11 33.5 t-28 24t-36 20.5t-36 24t-28 34.5t-11 51.5q0 59 38 90t95 31q32 0 60.5 -11.5t50 -34t34.5 -56t13 -76.5q0 -65 -18 -126t-58.5 -113t-104 -93.5t-155.5 -68.5z" />
<glyph unicode="&#x201e;" horiz-adv-x="922" d="M61 -229q101 32 148 78t47 106q0 20 -11 33.5t-28 24t-36 20.5t-36 24t-28 34.5t-11 51.5q0 59 38.5 90t95.5 31q32 0 60 -11.5t50 -34t34.5 -56t12.5 -76.5q0 -65 -18 -126t-58.5 -113t-104 -93.5t-155.5 -68.5v86zM471 -229q100 32 147.5 78t47.5 106q0 20 -11 33.5 t-28 24t-36 20.5t-36 24t-28 34.5t-11 51.5q0 59 38 90t95 31q32 0 60.5 -11.5t50 -34t34.5 -56t13 -76.5q0 -65 -18 -126t-58.5 -113t-104 -93.5t-155.5 -68.5v86z" />
<glyph unicode="&#x2022;" horiz-adv-x="741" d="M100 729q0 84 20.5 141t56.5 91.5t86 49.5t108 15q56 0 105 -15t86 -49.5t58 -91.5t21 -141t-21 -140.5t-58 -91.5t-86 -50t-105 -15q-58 0 -108 15t-86 50t-56.5 91.5t-20.5 140.5z" />
<glyph unicode="&#x2026;" horiz-adv-x="1757" d="M164 125q0 40 10 66.5t27.5 42.5t41 23t50.5 7q26 0 49.5 -7t41 -23t28 -42.5t10.5 -66.5q0 -39 -10.5 -66t-28 -43t-41 -23t-49.5 -7q-27 0 -50.5 7t-41 23t-27.5 43t-10 66zM750 125q0 40 10 66.5t27.5 42.5t41 23t50.5 7q26 0 49.5 -7t41 -23t28 -42.5t10.5 -66.5 q0 -39 -10.5 -66t-28 -43t-41 -23t-49.5 -7q-27 0 -50.5 7t-41 23t-27.5 43t-10 66zM1335 125q0 40 10 66.5t27.5 42.5t41 23t50.5 7q26 0 49.5 -7t41 -23t28 -42.5t10.5 -66.5q0 -39 -10.5 -66t-28 -43t-41 -23t-49.5 -7q-27 0 -50.5 7t-41 23t-27.5 43t-10 66z" />
<glyph unicode="&#x202f;" horiz-adv-x="381" />
<glyph unicode="&#x2039;" horiz-adv-x="682" d="M133 520v66l313 356h103l-207 -389l207 -389h-103z" />
<glyph unicode="&#x203a;" horiz-adv-x="682" d="M135 164l207 389l-207 389h103l313 -356v-66l-313 -356h-103z" />
<glyph unicode="&#x2044;" horiz-adv-x="127" d="M-369 0l731 1462h134l-729 -1462h-136z" />
<glyph unicode="&#x205f;" horiz-adv-x="476" />
<glyph unicode="&#x20ac;" d="M84 547v96h141q-2 23 -3 50t-1 48v45h-137v97h145q14 171 59.5 285.5t114 183.5t155 98t181.5 29q78 0 141.5 -15.5t109 -43t70.5 -65.5t25 -83q0 -71 -45.5 -100t-132.5 -29q0 48 -10 91t-32 75t-57.5 50.5t-86.5 18.5q-53 0 -102 -23t-88.5 -80t-67 -152.5 t-37.5 -239.5h430v-97h-434v-49v-48q0 -27 2 -46h350v-96h-342q13 -109 42.5 -192.5t73.5 -140t101.5 -85.5t126.5 -29q52 0 92.5 10t71.5 27t54.5 39.5t41.5 46.5q13 -8 25 -23t12 -46q0 -27 -18.5 -57.5t-56.5 -56.5t-96 -43t-138 -17q-96 0 -184 30.5t-159 98t-120 175.5 t-68 263h-149z" />
<glyph unicode="&#x2122;" horiz-adv-x="1710" d="M55 1276l6 186h598l7 -186h-60l-8 49q-4 29 -21 50t-61 22h-94v-525q0 -21 6.5 -33t17 -19t25 -9t29.5 -2h32v-55h-348v55h35q15 0 29 2t24.5 8t16.5 17.5t6 29.5v531h-90q-22 -1 -37 -6.5t-24 -15.5t-14 -22.5t-7 -27.5l-8 -49h-60zM700 754v55h21q31 0 54.5 10t25.5 47 v482q-1 19 -7.5 30.5t-17.5 17.5t-25.5 7.5t-29.5 1.5h-21v57h236l225 -567l232 567h231v-57h-22q-17 0 -31.5 -2t-25 -8t-16 -18.5t-5.5 -33.5v-471q0 -21 5.5 -33t16 -19t25 -9t31.5 -2h22v-55h-303v55q35 0 56 10t24 45v457l-232 -567h-71l-232 569v-451q0 -41 21 -52 t61 -11v-55h-248z" />
<glyph unicode="&#xe000;" horiz-adv-x="1100" d="M0 1100h1100v-1100h-1100v1100z" />
<glyph unicode="&#xfb01;" horiz-adv-x="1358" d="M55 0v86h27q35 0 65.5 5t53 20.5t36 44.5t13.5 77v768h-187v97h187v61q0 95 29 173.5t89.5 135t152.5 88t218 31.5q191 0 287 -46.5t96 -123.5q0 -30 -13.5 -55t-38 -42.5t-58.5 -27.5t-76 -10q0 31 -11 67.5t-37 68.5t-70.5 53.5t-112.5 21.5q-79 0 -130 -28.5 t-80.5 -75t-41 -107t-11.5 -125.5v-59h695v-865q0 -48 13 -77t36 -44.5t53.5 -20.5t65.5 -5h26v-86h-561v86h6q34 0 64.5 4.5t53.5 18.5t36.5 41.5t13.5 72.5v778h-502v-768q0 -48 13.5 -77t36 -44.5t53.5 -20.5t65 -5h37v-86h-592z" />
<glyph unicode="&#xfb02;" horiz-adv-x="1378" d="M55 0v86h27q35 0 65.5 5t53 20.5t36 44.5t13.5 77v768h-187v97h187v61q0 95 29 172t89.5 131.5t152.5 84.5t218 30q25 0 53 -2.5t54.5 -5.5t49 -6.5t34.5 -6.5h205v-1323q0 -48 13 -77t36 -44.5t53.5 -20.5t65.5 -5h26v-86h-561v86h6q35 0 65.5 5t53 20.5t36 44.5 t13.5 77v1041q0 43 -13.5 81t-42 66.5t-73.5 45t-108 16.5q-79 0 -130 -26.5t-80.5 -71.5t-41 -104t-11.5 -124v-59h314v-97h-314v-768q0 -48 13.5 -77t36 -44.5t53.5 -20.5t65 -5h37v-86h-592z" />
<glyph unicode="&#xfb03;" horiz-adv-x="2052" d="M55 0v86h27q34 0 65 5t53.5 20.5t36 44.5t13.5 77v768h-187v97h187v24q0 214 99.5 324t279.5 110q73 0 124.5 -10.5t84 -29.5t47 -45.5t14.5 -57.5q0 -28 -12.5 -49.5t-35 -36t-53 -22t-67.5 -7.5q0 31 -6.5 60.5t-22 52.5t-41.5 37t-65 14q-44 0 -73.5 -22.5 t-47.5 -63.5t-25.5 -98t-7.5 -127v-53h502v16q0 111 29.5 199t89.5 149t152.5 93t218.5 32q190 0 286.5 -46.5t96.5 -123.5q0 -30 -13.5 -55t-38.5 -42.5t-59 -27.5t-76 -10q0 31 -11 67.5t-37 68.5t-71 53.5t-112 21.5q-79 0 -130 -29t-80 -80t-40.5 -120t-11.5 -150v-16 h694v-865q0 -48 13.5 -77t36 -44.5t53 -20.5t65.5 -5h26v-86h-561v86h6q34 0 64.5 4.5t53.5 18.5t36.5 41.5t13.5 72.5v778h-501v-768q0 -48 13 -77t36 -44.5t53.5 -20.5t65.5 -5h36v-86h-591v86h26q34 0 65 5t53.5 20.5t36 44.5t13.5 77v768h-502v-768q0 -48 13.5 -77 t36 -44.5t53 -20.5t65.5 -5h37v-86h-592z" />
<glyph unicode="&#xfb04;" horiz-adv-x="2050" d="M55 0v86h27q34 0 65 5t53.5 20.5t36 44.5t13.5 77v768h-187v97h187v24q0 214 99.5 324t279.5 110q73 0 124.5 -10.5t84 -29.5t47 -45.5t14.5 -57.5q0 -28 -12.5 -49.5t-35 -36t-53 -22t-67.5 -7.5q0 31 -6.5 60.5t-22 52.5t-41.5 37t-65 14q-44 0 -73.5 -22.5 t-47.5 -63.5t-25.5 -98t-7.5 -127v-53h502v24q0 108 29.5 193t89.5 143t152.5 88.5t218.5 30.5q24 0 52.5 -2.5t54.5 -5.5t48.5 -6.5t34.5 -6.5h205v-1323q0 -48 13.5 -77t36 -44.5t53 -20.5t65.5 -5h26v-86h-561v86h6q35 0 65.5 5t53.5 20.5t36 44.5t13 77v1041 q0 43 -13 81t-41.5 66.5t-73.5 45t-109 16.5q-79 0 -130 -27t-80 -75t-40.5 -113t-11.5 -140v-30h313v-97h-313v-768q0 -48 13 -77t36 -44.5t53.5 -20.5t65.5 -5h36v-86h-591v86h26q34 0 65 5t53.5 20.5t36 44.5t13.5 77v768h-502v-768q0 -48 13.5 -77t36 -44.5t53 -20.5 t65.5 -5h37v-86h-592z" />
<glyph horiz-adv-x="819" d="M33 848v61l383 564h164v-537h196v-88h-196v-113q0 -26 7 -41.5t19 -23.5t27.5 -10.5t32.5 -2.5h41v-69h-451v69h57q17 0 32 2.5t26.5 10.5t18.5 23.5t7 41.5v113h-364zM154 936h243v231q0 32 3 73t8 79q-8 -17 -17 -34t-14 -25z" />
</font>
</defs>
</svg>
