<?xml version="1.0" standalone="no"?>
<!DOCTYPE svg PUBLIC "-//W3C//DTD SVG 1.1//EN" "http://www.w3.org/Graphics/SVG/1.1/DTD/svg11.dtd" >
<svg xmlns="http://www.w3.org/2000/svg">
<metadata>
This is a custom SVG webfont generated by Font Squirrel.
Copyright   : Copyright c 2010 Yanone httpyanonedetypedesign All rights reservedThis Font Software is licensed under the SIL Open Font License Version 11This license is available with a FAQ at httpscriptssilorgOFL
Designer    : Yanone
Foundry     : Yanone
Foundry URL : httpyanonedetypedesign
</metadata>
<defs>
<font id="YanoneKaffeesatzBold" horiz-adv-x="819" >
<font-face units-per-em="2048" ascent="1638" descent="-410" />
<missing-glyph horiz-adv-x="286" />
<glyph unicode=" "  horiz-adv-x="286" />
<glyph unicode="&#x09;" horiz-adv-x="286" />
<glyph unicode="&#xa0;" horiz-adv-x="286" />
<glyph unicode="!" horiz-adv-x="413" d="M53 1378q-2 47 52.5 57.5t271.5 10.5l-51 -846q-4 -74 -45 -90t-185 -16zM61 129q0 63 39 106.5t107 43.5q145 0 145 -150q0 -61 -39 -103t-106 -42q-80 0 -113 35.5t-33 109.5z" />
<glyph unicode="&#x22;" horiz-adv-x="591" d="M55 1485q-8 109 2 114q20 12 90 13q61 0 123 -8q-4 -98 -22.5 -246t-30.5 -158l-125 -6zM326 1485q-8 109 2 114q20 12 90 13q61 0 123 -8q-4 -98 -22.5 -246t-31.5 -158l-125 -6z" />
<glyph unicode="#" d="M31 369q0 111 6 143.5t35 32.5h61l10 172h-112q0 111 6 143.5t35 32.5h80l6 104q2 29 42 35t156 6l-8 -145h152l6 104q2 29 42 35t157 6l-9 -145h92q0 -111 -6 -143.5t-34 -32.5h-60l-10 -172h110q0 -111 -6 -143.5t-34 -32.5h-78l-6 -109q-2 -29 -42 -35t-157 -6l8 150 h-151l-7 -109q-2 -29 -42 -35t-156 -6l8 150h-94zM330 545h151l11 172h-152z" />
<glyph unicode="$" d="M72 979q0 236 250 276v168q0 51 49 69.5t159 18.5v-251q70 -6 118 -19.5t65.5 -28t17.5 -28.5q0 -90 -55 -156q-55 35 -182 35q-84 0 -125 -16.5t-41 -61.5q0 -41 13 -69.5t54 -75.5l242 -262q94 -106 94 -248q0 -274 -242 -332v-166q0 -51 -48 -67.5t-160 -16.5v238 q-98 8 -152.5 36.5t-54.5 57.5q0 25 16 91.5t37 96.5q76 -57 209 -57q139 0 139 121q0 47 -17.5 80.5t-68.5 93.5l-229 254q-88 104 -88 219z" />
<glyph unicode="%" horiz-adv-x="1366" d="M51 1077q0 373 291 373q145 0 208.5 -80t63.5 -289q0 -201 -71.5 -294t-216.5 -93q-150 0 -212.5 77t-62.5 306zM217 70l782 1382q125 -43 125 -96q0 -39 -768 -1372q-139 43 -139 86zM270 1077q0 -129 15.5 -169t52.5 -40q66 0 65 209q0 127 -12 164t-51 37 q-35 0 -52.5 -41t-17.5 -160zM752 365q0 373 290 372q145 0 209 -79.5t64 -288.5q0 -201 -72 -294t-217 -93q-150 0 -212 77t-62 306zM967 358q0 -131 15 -169.5t54 -38.5q68 0 68 208q0 127 -12.5 164t-53.5 37q-37 0 -54 -41t-17 -160z" />
<glyph unicode="&#x26;" horiz-adv-x="1001" d="M31 346q0 121 62.5 221.5t158.5 165.5q-150 279 -150 430q0 129 84 206t258 77q143 0 230.5 -28.5t87.5 -78.5q0 -100 -57 -170q-100 74 -232 74q-70 0 -98.5 -19.5t-28.5 -90.5q0 -78 85 -249t208 -347q2 31 2 86q0 227 -63 391q66 18 253 18q70 0 136 -6q6 -41 6 -78 q0 -35 -4 -54.5t-24.5 -35.5t-59.5 -16h-43q23 -76 22 -246q0 -158 -43 -293q109 -119 170 -141q-8 -72 -59 -127t-90 -55q-33 0 -140 112q-109 -113 -286 -112q-385 -1 -385 366zM268 342q0 -70 35 -108.5t100 -38.5q98 0 156 71q-111 143 -209 301q-82 -80 -82 -225z" />
<glyph unicode="'" horiz-adv-x="321" d="M55 1485q-8 109 2 114q20 12 90 13q61 0 123 -8q-4 -98 -22.5 -246t-30.5 -158l-125 -6z" />
<glyph unicode="(" horiz-adv-x="593" d="M121 651q0 197 28.5 370t68.5 281.5t85 189.5t77 115.5t46 34.5q57 0 85 -30.5t44 -114.5q-197 -293 -199 -835q-2 -303 54.5 -542t144.5 -341q-18 -90 -43 -132t-80 -42q-14 0 -48 32.5t-79 114.5t-86 195.5t-69.5 300t-28.5 403.5z" />
<glyph unicode=")" horiz-adv-x="593" d="M39 -221q201 283 199 883q-4 584 -199 835q16 84 44 114.5t85 30.5q14 0 46 -32.5t77 -110.5t85 -186.5t68.5 -283.5t28.5 -378q0 -199 -28.5 -378t-69.5 -296.5t-86 -204.5t-79 -127t-48 -40q-55 0 -80 42t-43 132z" />
<glyph unicode="*" horiz-adv-x="960" d="M23 1004q-2 96 47 147t92 31l244 -176q2 -49 -17.5 -67.5t-50.5 -6.5zM115 631l250 227q51 45 100 -20l-160 -320q-33 -49 -93 -3t-97 116zM385 1360q-6 59 80 59q68 0 137 -30l-55 -306q-6 -35 -22.5 -43t-78.5 2zM507 848.5q11 17.5 64 38.5l242 -254q37 -45 -26.5 -90 t-137.5 -56l-139 318q-14 26 -3 43.5zM557 989.5q2 18.5 33 36.5l287 178q61 -55 61 -147q0 -70 -41 -78l-309 -57q-33 49 -31 67.5z" />
<glyph unicode="+" d="M51 479q0 117 6 157t35 40h219v219q0 29 40 35t157 6v-260h260q0 -117 -6 -157t-35 -40h-219v-219q0 -29 -40 -35t-157 -6v260h-260z" />
<glyph unicode="," horiz-adv-x="385" d="M59 139q0 55 38 94t93 39q145 0 146 -149q0 -115 -73 -217.5t-116 -102.5q-72 0 -86 60q43 72 56 153q-58 35 -58 123z" />
<glyph unicode="-" horiz-adv-x="540" d="M61 479q0 117 6.5 157t34.5 40h377q0 -117 -6 -157t-35 -40h-377z" />
<glyph unicode="." horiz-adv-x="385" d="M47 131q0 63 39 106.5t107 43.5q145 0 145 -150q0 -61 -39 -103t-106 -42q-80 0 -113 35.5t-33 109.5z" />
<glyph unicode="/" horiz-adv-x="753" d="M20 -41l459 1548q8 23 13.5 32t33 17.5t70.5 9.5t137 1l-459 -1555q-10 -39 -45 -46t-209 -7z" />
<glyph unicode="0" d="M41 606q0 313 88 468t279 155q193 0 281.5 -136.5t88.5 -410.5q0 -367 -81 -533.5t-294 -166.5q-88 0 -152.5 28.5t-104.5 78.5t-63.5 130t-32.5 171t-9 216zM291 598q0 -244 22.5 -328t98.5 -84q66 0 95.5 113t29.5 383q0 176 -25 261t-92 85q-78 0 -103.5 -105.5 t-25.5 -324.5z" />
<glyph unicode="1" d="M39 152q0 37 56.5 50t203.5 13l18 780q-106 -4 -194 -24q-35 61 -35 141q0 33 163 75t253 42q45 0 59 -12l-24 -1002h114l125 8q0 -143 -7 -183t-44 -40h-682q-6 78 -6 152z" />
<glyph unicode="2" d="M41 63q0 55 10 89t43 94q66 115 174.5 255t169 233t60.5 167q0 51 -33 80t-88 29q-53 0 -136 -17.5t-132 -44.5v-2q-29 63 -29 168q0 47 113.5 81t255.5 34q168 0 240.5 -72t72.5 -217q0 -111 -56.5 -214t-177 -257t-182.5 -254h152l280 23q0 -152 -8 -195t-45 -43h-676 q-8 24 -8 63z" />
<glyph unicode="3" d="M68 1114q0 49 99 82t257 33q145 0 215 -67.5t70 -180.5q0 -227 -199 -369q113 -12 179.5 -89t66.5 -214q0 -262 -130 -388t-335 -126q-211 0 -211 111q0 59 29 168q59 -59 182 -60q106 0 160.5 76t54.5 207q0 104 -88 148t-225 38l-3 140q123 49 188.5 123.5t65.5 154.5 q0 53 -20.5 81t-85.5 28q-125 0 -242 -62v-2q-28 64 -28 168z" />
<glyph unicode="4" d="M33 428q0 61 162.5 393t232.5 385q47 37 98 37q76 0 133 -31l-6 -790l125 10q2 -2 4 -7t4 -25.5t2 -45.5q-4 -145 -75 -145h-60v-143q0 -49 -29.5 -57.5t-199.5 -8.5v209h-313q-78 78 -78 219zM227 422h197l31 506q-51 -66 -127 -237t-101 -269z" />
<glyph unicode="5" d="M57 -119q0 113 25 187q61 -59 174 -60q121 0 189.5 104.5t68.5 227.5q0 156 -50 210t-214 54q-90 0 -180 -22l63 647h627q0 -127 -19.5 -165t-95.5 -38l-317 12l-25 -254q41 8 88 9q53 0 97 -6.5t97.5 -31t89.5 -65.5t60.5 -115.5t24.5 -177.5q0 -279 -125 -440.5 t-350 -161.5q-78 0 -132.5 16.5t-75 35t-20.5 34.5z" />
<glyph unicode="6" d="M45 659q0 221 33 377t97.5 242t144 124t186.5 38q221 0 221 -82q0 -86 -22 -162q-82 29 -168 29q-133 0 -200 -99.5t-75 -330.5q86 109 242 108q279 0 278 -397q0 -522 -385 -522q-96 0 -162.5 31.5t-103.5 80.5t-56.5 144.5t-24.5 183.5t-5 235zM264 594q0 -4 1 -12.5 t1 -12.5q-12 -383 144 -383q68 0 107.5 80t39.5 193q0 233 -125 233q-86 0 -168 -98z" />
<glyph unicode="7" d="M74 1229h737q-211 -475 -314.5 -813t-105.5 -604q-145 0 -190 12t-45 51q0 221 117.5 584.5t238.5 576.5q-178 -12 -377 -12q-61 0 -61 205z" />
<glyph unicode="8" d="M45 381q0 242 199 385q-94 76 -131 133q-53 76 -54 186q0 172 97.5 266.5t249.5 94.5q375 0 374 -332q0 -213 -196 -366q80 -80 92 -95q106 -125 106 -278q0 -160 -93 -274.5t-263 -114.5q-199 0 -290 110.5t-91 284.5zM258 397q0 -92 43 -142t109 -50q63 0 105 46 t42 130q0 98 -59 166q-31 37 -95 88q-145 -111 -145 -238zM291 1100q0 -70 43 -125q23 -29 102 -101q131 111 131 232q0 47 -34.5 86t-94.5 39q-66 0 -106.5 -32.5t-40.5 -98.5z" />
<glyph unicode="9" d="M37 735q0 512 385 512q217 0 282.5 -128t73.5 -529q-4 -414 -122.5 -608.5t-387.5 -194.5q-197 0 -196 88q0 80 20 152q76 -23 146 -23q86 0 147 32t95 93t50.5 130t22.5 161q-82 -104 -238 -105q-125 0 -201.5 112.5t-76.5 307.5zM262 760q0 -233 125 -234q100 0 172 95 v12q0 238 -27.5 324.5t-105.5 86.5q-74 0 -119 -72.5t-45 -211.5z" />
<glyph unicode=":" horiz-adv-x="385" d="M49 131q0 63 39 106.5t107 43.5q145 0 145 -150q0 -61 -39 -103t-106 -42q-80 0 -113 35.5t-33 109.5zM49 788q0 63 39 106.5t107 43.5q145 0 145 -150q0 -61 -39 -103t-106 -42q-80 0 -113 35.5t-33 109.5z" />
<glyph unicode=";" horiz-adv-x="385" d="M39 788q0 63 39 106.5t106 43.5q145 0 146 -150q0 -61 -39 -103t-107 -42q-80 0 -112.5 35.5t-32.5 109.5zM47 139q0 55 38 94t93 39q145 0 146 -149q0 -115 -73 -217.5t-116 -102.5q-72 0 -86 60q43 72 55 153q-57 35 -57 123z" />
<glyph unicode="&#x3c;" d="M68 524q0 86 71 123l529 254q78 -68 82 -151q0 -49 -39 -66l-346 -168l389 -180q-2 -68 -35 -122t-68 -54q-20 0 -63 16l-484 215q-36 63 -36 133z" />
<glyph unicode="=" d="M51 274q0 117 6 157t35 40h676q0 -117 -6 -157t-35 -40h-676zM51 684q0 117 6 157t35 40h676q0 -117 -6 -157t-35 -40h-676z" />
<glyph unicode="&#x3e;" d="M78 696q2 68 34.5 122t67.5 54q20 0 64 -16l483 -215q37 -63 37 -133q0 -88 -74 -123l-528 -256q-76 74 -80 152q0 51 37 67l348 168z" />
<glyph unicode="?" horiz-adv-x="602" d="M27 1364q0 41 86 65.5t184 24.5q141 0 213 -78t72 -202q0 -117 -32 -198t-96.5 -168t-84.5 -126q-18 -41 -1 -113.5t5 -89.5q-27 -29 -135 -28q-31 0 -72 4q-41 76 -41 166q0 61 27 114q33 66 85 146t73.5 129t21.5 102q0 55 -30 83t-99 28q-41 0 -76 -11.5t-49 -21.5 l-15 -10q-36 98 -36 184zM123 131q0 63 39 106.5t106 43.5q145 0 146 -150q0 -61 -39 -103t-107 -42q-80 0 -112.5 35.5t-32.5 109.5z" />
<glyph unicode="@" horiz-adv-x="1472" d="M82 539q0 430 184.5 642t513.5 212q305 0 460 -146.5t155 -501.5q0 -188 -21.5 -328.5t-53.5 -218t-79 -123.5t-87 -59.5t-89 -13.5q-74 0 -127 43q-49 -43 -211 -43q-129 0 -192.5 62.5t-63.5 261.5q0 338 207 338q74 0 113 -29q2 68 2 119q2 39 -16.5 55t-59.5 16 q-96 0 -187 -49q-25 47 -24 131q2 31 18 47q82 59 267 60q115 0 168 -51.5t51 -180.5l-6 -376q-4 -141 -9 -201q29 -4 41 -4q119 0 119 475q0 301 -75.5 406.5t-301.5 105.5q-252 0 -356.5 -144.5t-104.5 -535.5q0 -381 88.5 -527.5t313.5 -146.5q287 0 475 66 q61 -88 61 -156q0 -63 -136 -99t-382 -36q-125 0 -214 17.5t-178 74.5t-142 156.5t-87 270.5t-34 411zM690 317q2 -117 17 -133q10 -12 30 -12q27 0 36 23.5t11 105.5l4 203q-10 4 -34 4q-35 0 -50.5 -41t-13.5 -150z" />
<glyph unicode="A" horiz-adv-x="894" d="M4 4l342 1391q8 43 92 43q70 0 109 -8l342 -1393q1 -5 1 -10q0 -8 -4 -13q-7 -8 -31 -13t-69 -5q-74 0 -133 4l-67 326h-273l-59 -287q-4 -16 -9 -24.5t-27.5 -13.5t-67.5 -5q-74 0 -146 8zM356 532h187l-39 191q-31 145 -53 387q-29 -260 -56 -387z" />
<glyph unicode="B" horiz-adv-x="733" d="M61 0v1393q0 41 58 41h200q346 0 347 -322q0 -145 -56.5 -231t-132.5 -97q236 -25 236 -297q0 -219 -93.5 -353t-289.5 -134h-269zM295 199h41q47 0 74.5 71.5t27.5 196.5q0 129 -22.5 169t-75.5 40h-45v-477zM295 868h39q37 0 57.5 53.5t20.5 141.5q0 170 -70 170h-47 v-365z" />
<glyph unicode="C" horiz-adv-x="661" d="M45 670q0 795 410 794q119 0 156.5 -31.5t37.5 -89.5q0 -68 -33 -137q-47 35 -106 35q-223 0 -223 -553q0 -262 35.5 -362.5t123.5 -100.5q102 0 160 31q31 -66 31 -135q0 -72 -66.5 -112t-183.5 -40q-123 0 -193.5 54.5t-109.5 210t-39 436.5z" />
<glyph unicode="D" horiz-adv-x="757" d="M61 0v1393q0 41 58 41h196q145 0 227.5 -50.5t128.5 -193.5t46 -402q0 -412 -92.5 -600t-298.5 -188h-265zM291 217h41q20 0 36.5 11.5t33 49t26.5 101t17.5 173.5t7.5 261q0 176 -16.5 269.5t-41 118t-65.5 24.5h-39v-1008z" />
<glyph unicode="E" horiz-adv-x="614" d="M61 0v1393q2 41 41 41h492q0 -143 -5 -174t-36 -31h-262v-348h248q0 -139 -5.5 -174t-33.5 -35h-209v-467h289q0 -147 -5.5 -176t-35.5 -29h-478z" />
<glyph unicode="F" horiz-adv-x="604" d="M61 0v1393q2 41 41 41h492q0 -141 -5 -168t-36 -27h-262v-358h248q0 -139 -5.5 -174t-33.5 -35h-209v-631q4 -41 -37 -41h-193z" />
<glyph unicode="G" horiz-adv-x="755" d="M31 670q0 195 20.5 334t55 226t93 137t124 67.5t157.5 17.5q106 0 165 -34t59 -83q0 -59 -29 -141q-51 41 -146 41q-150 0 -200.5 -120t-50.5 -427q0 -209 14 -312.5t43 -137t88 -33.5q47 0 65 18v459h-94v147q0 41 49 41h261l-3 -827q-94 -61 -282 -61q-160 0 -241 59 t-114.5 203.5t-33.5 425.5z" />
<glyph unicode="H" horiz-adv-x="782" d="M63 0v1393v2q0 29 29 34t201 5v-564h196v523v2q0 29 29 34t201 5v-1393v-2q0 -29 -28.5 -34t-201.5 -5v662h-196v-621v-2q0 -29 -29 -34t-201 -5z" />
<glyph unicode="I" horiz-adv-x="354" d="M59 0v1333q0 76 30 88.5t204 12.5v-1393q0 -31 -30 -36t-204 -5z" />
<glyph unicode="J" horiz-adv-x="636" d="M41 119q0 53 31 125q80 -59 164 -60q66 0 86 37t20 154v958q0 76 29.5 88.5t203.5 12.5v-1104q0 -176 -71.5 -262t-235.5 -86q-133 0 -180 37t-47 100z" />
<glyph unicode="K" horiz-adv-x="806" d="M57 0v1393q0 31 29 36t205 5v-588l223 573q74 16 148 17q61 0 86 -14q16 -9 16 -25q0 -8 -4 -19l-234 -557q221 -207 222 -778q0 -29 -18.5 -38t-78.5 -9q-78 0 -164 6q0 473 -135 625q-31 31 -61 45v-631q0 -31 -29 -36t-205 -5z" />
<glyph unicode="L" horiz-adv-x="620" d="M61 0v1376q0 43 30 50.5t200 7.5v-1219h289v-174q0 -41 -41 -41h-478z" />
<glyph unicode="M" horiz-adv-x="976" d="M61 0v1393q0 18 6.5 28.5t13.5 11.5t21 1h174l162 -504q16 -51 28.5 -98.5l20 -76t7.5 -30.5q25 119 49 201l139 467q8 25 15.5 33t25.5 8h192v-1393q0 -31 -29.5 -36t-205.5 -5l10 389q8 332 60 612l-7 5q-72 -291 -102 -377l-98 -273q-4 -14 -23 -14h-94l-96 287 q-20 57 -101 377l-6 -5q55 -274 60 -610l6 -350q0 -31 -32 -36t-196 -5z" />
<glyph unicode="N" horiz-adv-x="880" d="M61 0v1393q0 41 41 41h183l213 -539q59 -156 116 -420q-25 223 -24 440v478q0 31 29.5 36t199.5 5v-1393q0 -41 -41 -41h-178l-217 549q-51 131 -121 446q29 -283 29 -463v-491q0 -31 -29 -36t-201 -5z" />
<glyph unicode="O" horiz-adv-x="835" d="M41 725q0 406 93 566.5t298 160.5t285 -151.5t80 -567.5q0 -422 -90.5 -586.5t-296.5 -164.5q-141 0 -217 59t-114 220t-38 464zM303 674q0 -258 22.5 -356.5t96.5 -98.5t98.5 111.5t24.5 394.5q0 289 -21.5 390.5t-99.5 101.5q-70 0 -95.5 -119t-25.5 -424z" />
<glyph unicode="P" horiz-adv-x="714" d="M61 0v1393q0 23 8.5 32t32.5 9h193q207 0 303 -91.5t96 -330.5q0 -133 -32.5 -227.5t-91 -142.5t-123 -68.5t-142.5 -20.5h-14v-512q0 -31 -29 -36t-201 -5zM291 764h41q53 0 78.5 57.5t25.5 218.5q0 195 -90 195h-55v-471z" />
<glyph unicode="Q" horiz-adv-x="835" d="M41 725q0 406 93 566.5t298 160.5t285 -151.5t80 -567.5q0 -303 -45 -469t-144 -231q10 -72 30.5 -103.5t63.5 -31.5q68 0 123 34q31 -49 31 -120q0 -41 -40 -66t-80 -31t-81 -6q-121 0 -194.5 66.5t-114.5 210.5q-115 10 -179.5 77.5t-95 225t-30.5 436.5zM303 674 q0 -258 22.5 -356.5t96.5 -98.5t98.5 111.5t24.5 394.5q0 289 -21.5 390.5t-99.5 101.5q-70 0 -95.5 -119t-25.5 -424z" />
<glyph unicode="R" horiz-adv-x="751" d="M61 0v1393q0 41 41 41h193q207 0 303 -91.5t96 -330.5q0 -272 -143 -385q162 -211 176 -582q0 -31 -19.5 -41t-99.5 -10q-59 0 -135 6q-10 381 -133 553h-49v-512q0 -31 -30 -36t-200 -5zM291 764h41q53 0 78.5 55t25.5 205q0 211 -90 211h-55v-471z" />
<glyph unicode="S" horiz-adv-x="704" d="M31 1141q0 143 94 228t270 85q279 0 279 -115q0 -70 -53 -129q-18 14 -71.5 27.5t-107.5 13.5q-162 0 -161 -104q0 -80 73 -182l197 -252q72 -92 97.5 -167t25.5 -167q0 -399 -373 -399q-131 0 -199.5 39.5t-68.5 97.5q0 88 51 166q74 -68 190 -68q150 0 150 158 q0 96 -92 217l-187 250q-114 151 -114 301z" />
<glyph unicode="T" horiz-adv-x="778" d="M20 1221v172q0 41 41 41h697v-172q0 -25 -9.5 -33t-31.5 -8h-217v-1180q0 -31 -30 -36t-200 -5v1221h-250z" />
<glyph unicode="U" horiz-adv-x="841" d="M61 393v998q0 33 30 38t208 5v-1049q0 -106 26.5 -150.5t102.5 -44.5q74 0 119 25v1176q0 33 29.5 38t203.5 5v-1377q-45 -29 -139 -53t-213 -24q-117 0 -192.5 30.5t-111.5 92t-49.5 128t-13.5 162.5z" />
<glyph unicode="V" horiz-adv-x="860" d="M14 1374q-2 17 -2 29q0 13 3 19q7 11 51 12h192l102 -668q29 -190 76 -578q31 328 68 578l88 606q4 35 15 48.5t40 13.5h203l-270 -1434q-104 -12 -201 -12q-102 0 -129 121q-33 145 -91.5 461.5t-101.5 559.5z" />
<glyph unicode="W" horiz-adv-x="1368" d="M14 1374q-2 14 -2 24q0 15 5 23q9 12 49 13h192l100 -668q41 -276 58 -533h16q6 252 51 533l88 545q4 35 14.5 48t41.5 13h161l105 -606q35 -199 59 -533h17q10 264 49 533l86 606q4 35 15 48.5t40 13.5h199l-244 -1434q-111 -12 -201 -12q-96 0 -122 129l-46 221 q-39 197 -67 526q-37 -369 -64 -526l-55 -338q-100 -10 -219 -10q-86 0 -111 127q-68 331 -215 1257z" />
<glyph unicode="X" horiz-adv-x="862" d="M14 0l277 735l-221 660q-8 27 18 32q33 6 256 7l59 -215q20 -74 56 -232q18 102 57 232l53 178q8 29 39 33t205 4l-229 -670l254 -731q5 -10 4 -17q0 -16 -27 -16h-254l-78 238q-33 98 -69 241q-47 -166 -76 -241l-78 -209q-16 -29 -47 -29h-199z" />
<glyph unicode="Y" horiz-adv-x="753" d="M12 1399q-1 5 -1 9q0 14 16 19q27 6 247 7l60 -269q37 -160 57 -393q16 193 60 395l49 226q8 31 38.5 36t206.5 5l-247 -832v-561v-2q0 -29 -29 -34t-201 -5v586z" />
<glyph unicode="Z" horiz-adv-x="770" d="M14 88q0 55 19 96l459 1047h-320q-61 0 -96 -10v170q0 43 43 43h614q20 -35 21 -72q0 -55 -21 -98l-469 -1061h318q88 0 137 20v-182q0 -41 -41 -41h-633q-31 35 -31 88z" />
<glyph unicode="[" horiz-adv-x="716" d="M178 -410v2026q0 20 2 28.5t9.5 17.5t28 12t51 5t85.5 2h346q0 -145 -9 -180t-56 -35h-223v-1661h288q0 -158 -9 -186.5t-56 -28.5h-457z" />
<glyph unicode="\" horiz-adv-x="737" d="M25 1507q-12 39 14 47q31 12 213 13l461 -1575q10 -35 -13 -43q-29 -10 -217 -10z" />
<glyph unicode="]" horiz-adv-x="716" d="M16 -410q0 145 9.5 180t56.5 35h223v1663h-289q0 158 9.5 186.5t56.5 28.5h457v-2027q0 -45 -25 -55.5t-152 -10.5h-346z" />
<glyph unicode="^" horiz-adv-x="880" d="M76 530l381 314l307 -258q39 -31 39 -72q0 -39 -31 -69.5t-78 -36.5l-264 139l-190 -113q-39 -20 -60 -20q-47 0 -74.5 35.5t-29.5 80.5z" />
<glyph unicode="_" horiz-adv-x="757" d="M20 -260q0 117 6.5 157t34.5 40h676q0 -117 -6 -157t-35 -40h-676z" />
<glyph unicode="`" horiz-adv-x="372" d="M0 1337q10 63 40 115.5t64 52.5q20 0 120 -87t149 -154q-4 -14 -10.5 -35t-29 -55.5t-48.5 -34.5q-18 0 -133 78.5t-152 119.5z" />
<glyph unicode="a" horiz-adv-x="692" d="M41 299q0 193 64.5 265.5t170.5 72.5q84 0 132 -31v142q0 41 -19.5 58t-66.5 17q-127 0 -246 -43q-31 59 -31 133q0 49 29 72q27 20 110.5 39.5t194.5 19.5q141 0 199.5 -56t58.5 -193v-97q0 -502 -10 -653q-111 -66 -295 -65q-66 0 -111 10t-90 41.5t-67.5 98.5 t-22.5 169zM283 305q0 -76 14 -106.5t51 -30.5t55 20q4 45 5 265q-18 16 -54 16q-37 0 -54 -36t-17 -128z" />
<glyph unicode="b" horiz-adv-x="741" d="M72 41v1362q0 74 37.5 88t191.5 14v-520q70 59 174 59q123 0 177.5 -94t54.5 -321q0 -168 -26 -291t-62.5 -190.5t-93 -106.5t-104.5 -50t-110 -11q-163 0 -239 61zM301 197q16 -16 45 -17q100 0 100 408q0 252 -77 252q-39 0 -68 -29v-614z" />
<glyph unicode="c" horiz-adv-x="598" d="M43 489q0 141 22.5 246t56.5 163t85 92t97 44t104 10q76 0 123 -27.5t47 -76.5q0 -61 -21 -123q-61 27 -129 27q-43 0 -71.5 -20.5t-51 -102.5t-22.5 -227q0 -178 28.5 -245t108.5 -67q74 0 131 29q18 -76 18 -121q0 -51 -62.5 -80.5t-160.5 -29.5q-168 0 -235.5 102 t-67.5 407z" />
<glyph unicode="d" horiz-adv-x="749" d="M47 465q0 299 76 439t205 140q76 0 121 -36v397q0 72 37.5 86t191.5 14v-1464q-139 -61 -299 -61q-59 0 -102.5 8t-89.5 37.5t-74.5 81t-47 141.5t-18.5 217zM305 494q0 -178 17.5 -245t58.5 -67t68 21v635q-14 10 -43 10q-27 0 -45.5 -15.5t-37 -99t-18.5 -239.5z" />
<glyph unicode="e" horiz-adv-x="708" d="M45 463q0 178 27.5 299t82 179t113 80.5t138.5 22.5q262 0 262 -333q0 -178 -29 -291q-127 -27 -354 -31q4 -100 32.5 -143t100.5 -43q98 0 217 57q18 -61 18 -154q0 -59 -83 -92.5t-208 -33.5q-74 0 -129 21.5t-99 73.5t-66.5 149.5t-22.5 238.5zM283 569q113 0 151 19 q10 31 10 106q0 94 -14 123t-55 29q-47 0 -67.5 -66t-24.5 -211z" />
<glyph unicode="f" horiz-adv-x="536" d="M20 834q0 137 7.5 163.5t48.5 26.5h67v117q0 113 31 190.5t86 114.5t111.5 51t128.5 14q205 0 205 -106q0 -63 -23 -125q-55 27 -139 27t-127 -31t-43 -111v-141h147q0 -133 -7 -161.5t-36 -28.5h-104v-793q0 -41 -41 -41h-189v834h-123z" />
<glyph unicode="g" horiz-adv-x="782" d="M20 -172q0 135 138 231q-115 33 -109 117q4 88 127 191q-121 82 -121 297q0 209 87 294.5t259 85.5q49 0 103 -18h244q25 -49 24 -113q0 -84 -72 -84q-10 0 -43 5q49 -72 50 -185q0 -170 -79 -252t-253 -82q-37 0 -56 2q-25 -35 -24 -57q0 -14 18.5 -20.5t73.5 -12.5 t84 -10q137 -23 203.5 -80t66.5 -174q0 -162 -96 -263t-293 -101q-332 0 -332 229zM258 -113q0 -41 26.5 -60.5t92.5 -19.5q68 0 99.5 39t31.5 84q0 51 -31 73t-141 32q-78 -60 -78 -148zM299 674q0 -109 18.5 -149t67.5 -40t69.5 46.5t20.5 179.5q0 96 -18.5 134t-65.5 38 q-92 0 -92 -209z" />
<glyph unicode="h" horiz-adv-x="739" d="M68 0v1405q0 72 38.5 86t190.5 14v-532q72 72 195 71q113 0 150.5 -61t37.5 -203v-739q0 -31 -33 -36t-205 -5v709q0 39 -3 61.5t-18 43t-44 20.5q-41 0 -80 -25v-768q0 -31 -28.5 -36t-200.5 -5z" />
<glyph unicode="i" horiz-adv-x="368" d="M68 0v924q0 72 39.5 86t193.5 14v-983q0 -31 -29.5 -36t-203.5 -5zM78 1323q0 160 125 160q61 0 84.5 -33t23.5 -117q0 -176 -123 -176q-55 0 -82.5 37t-27.5 129z" />
<glyph unicode="j" horiz-adv-x="382" d="M-184 -281q0 74 30 113q61 -27 148 -27q55 0 72.5 31t17.5 121v967q0 72 40 86t189 14v-1098q0 -330 -284 -329q-117 0 -165 29.5t-48 92.5zM88 1323q0 160 125 160q61 0 85 -33t24 -117q0 -176 -123 -176q-55 0 -83 37t-28 129z" />
<glyph unicode="k" horiz-adv-x="755" d="M68 0v1405q0 72 39.5 86t191.5 14v-518q102 57 217 57q170 0 170 -174q0 -184 -119 -309q143 -104 148 -387q0 -68 -6 -139q-2 -27 -36 -31t-227 -4q10 117 11 207q0 129 -23 192q-19 55 -64 55q-7 0 -16 -1q-14 -2 -28.5 -9.5t-20.5 -13.5l-6 -6v-383q0 -29 -18 -33 q-25 -8 -213 -8zM299 578q129 72 129 206q0 55 -41 56q-47 0 -88 -58v-204z" />
<glyph unicode="l" horiz-adv-x="364" d="M68 0v1405q0 72 39.5 86t189.5 14v-1464q0 -31 -28.5 -36t-200.5 -5z" />
<glyph unicode="m" horiz-adv-x="1085" d="M68 0v977q143 68 315 67q106 0 170 -53q117 53 242 53q145 0 188 -64.5t43 -213.5v-725q0 -31 -30.5 -36t-198.5 -5v760q0 49 -12.5 66.5t-47.5 17.5q-41 0 -75 -19v-784v-2q0 -29 -29 -34t-201 -5v768q0 51 -11 65.5t-46 14.5q-39 0 -78 -25v-782q0 -31 -29.5 -36 t-199.5 -5z" />
<glyph unicode="n" horiz-adv-x="739" d="M68 0v977q51 25 147 46t170 21q160 0 227.5 -57t67.5 -207v-739q0 -31 -31 -36t-207 -5v709q0 82 -13 110.5t-54 28.5q-43 0 -78 -25v-782q0 -31 -29.5 -36t-199.5 -5z" />
<glyph unicode="o" horiz-adv-x="718" d="M31 514q0 530 340 530q172 0 245.5 -111.5t73.5 -410.5q0 -289 -83 -415.5t-253 -126.5q-121 0 -185.5 36.5t-101 154.5t-36.5 343zM283 516q0 -154 9 -231.5t24.5 -96t43.5 -18.5q23 0 38.5 18.5t27.5 99.5t12 228q0 213 -14 272.5t-62 59.5q-27 0 -42 -20.5t-26 -96.5 t-11 -215z" />
<glyph unicode="p" horiz-adv-x="745" d="M68 -303v1268q129 80 303 79q162 0 245.5 -90t83.5 -325q0 -199 -20.5 -332t-59 -199.5t-82.5 -92t-106 -25.5q-88 0 -135 38v-403q-51 -18 -119 -18q-61 0 -85.5 20.5t-24.5 79.5zM297 219q25 -37 57 -37q14 0 25.5 7.5t24 33t20.5 70.5t13 127t5 194q0 141 -18 187.5 t-66 46.5q-33 0 -61 -25v-604z" />
<glyph unicode="q" horiz-adv-x="753" d="M45 440q0 604 426 604q123 0 215 -61v-1288q0 -66 -24.5 -82t-110.5 -19q-37 0 -98 9v446q-43 -70 -154 -69q-117 0 -185.5 98t-68.5 362zM307 451q0 -158 18.5 -215.5t59.5 -57.5q49 0 68 72v577q-18 20 -45 21q-33 0 -53.5 -32t-34 -121.5t-13.5 -243.5z" />
<glyph unicode="r" horiz-adv-x="509" d="M68 0v952q135 92 284 92q80 0 108.5 -23.5t28.5 -78.5q0 -70 -22 -133q-33 16 -76 16q-49 0 -88 -32l-2 -752q0 -31 -29.5 -36t-203.5 -5z" />
<glyph unicode="s" horiz-adv-x="651" d="M37 791q0 254 338 253q252 0 252 -129q0 -59 -45 -110q-78 43 -176 43q-96 0 -97 -62q0 -41 60 -102l151 -154q59 -70 81 -124t22 -132q0 -137 -93.5 -215.5t-250.5 -78.5q-240 0 -240 120q0 61 37 129q84 -45 178 -45q104 0 104 86q0 63 -45 115l-178 188 q-98 105 -98 218z" />
<glyph unicode="t" horiz-adv-x="581" d="M18 829q0 133 7.5 164t40.5 31h75v297q0 51 40 61.5t190 10.5v-369h168q0 -135 -6.5 -165t-38.5 -30h-123v-557q0 -33 2 -49t13 -32.5t34 -16.5q51 0 106 27q14 -68 15 -111q0 -111 -187 -110q-127 0 -170 69.5t-43 218.5v561h-123z" />
<glyph unicode="u" horiz-adv-x="739" d="M59 287v696q0 29 19 33q25 8 219 8v-752q0 -51 13.5 -73.5t54.5 -22.5q49 0 77 27v780v2q0 29 29 34t201 5v-967q-131 -78 -303 -77q-174 0 -242 75.5t-68 231.5z" />
<glyph unicode="v" horiz-adv-x="675" d="M20 956q-2 12 -2 23q0 31 24 37q32 8 228 8l37 -295q10 -78 20.5 -200.5t16.5 -204.5l4 -84h4q18 313 39 489l29 250q4 33 34.5 39t207.5 6l-205 -1024q-59 -10 -166 -10q-74 0 -96 102z" />
<glyph unicode="w" horiz-adv-x="1077" d="M12 981q-4 31 33 37t221 6l39 -287q12 -88 22.5 -209.5t16.5 -199.5l4 -78h17q18 268 22 297l55 411q4 31 16.5 38.5t57.5 7.5h152l69 -457q6 -39 12.5 -114t8.5 -130l4 -53h16q12 309 37 487l31 242q4 33 33.5 39t187.5 6q-190 -1024 -205 -1024q-43 -10 -149 -10 q-41 0 -75 24.5t-42 77.5l-21 135q-20 131 -26 299q-10 -180 -29 -299l-37 -227q-117 -10 -198 -10q-72 0 -95 100z" />
<glyph unicode="x" horiz-adv-x="776" d="M14 0l240 528l-209 459q-10 25 6 31q25 6 236 6l45 -113q37 -94 71 -213q37 119 74 213l29 74q12 29 44 34t206 5l-228 -479l224 -496q7 -15 6 -25q0 -11 -8 -16q-23 -8 -254 -8l-41 98q-35 82 -88 238q-27 -90 -78 -238l-21 -55q-12 -31 -51 -37t-203 -6z" />
<glyph unicode="y" horiz-adv-x="696" d="M-23 -293q0 78 29 125q47 -35 139 -35q84 0 103 170l-223 998q-10 45 17.5 52t207.5 7l59 -354q12 -74 23.5 -167t19.5 -167t8 -76q37 362 43 410l39 291q6 47 38 55t206 8l-229 -1071q-43 -201 -104.5 -274.5t-186.5 -73.5q-189 0 -189 102z" />
<glyph unicode="z" horiz-adv-x="614" d="M20 113q0 43 19 82l299 639h-166q-78 0 -135 -11q-8 47 -8 105q0 51 16 73.5t55 22.5h471q23 -23 23 -68t-27 -108l-278 -637h112q111 0 181 29q8 -33 8 -99q-2 -76 -20.5 -108.5t-71.5 -32.5h-439q-39 33 -39 113z" />
<glyph unicode="{" horiz-adv-x="544" d="M57 594q0 76 41 106q29 20 42.5 34t25.5 51.5t12 99.5q0 72 -14 208t-14 185q0 121 86 182.5t231 63.5q45 -63 45 -144q0 -68 -35 -77q-92 -14 -92 -150q0 -45 8 -163t8 -183q0 -90 -23.5 -131t-72.5 -64q49 -23 72.5 -65.5t23.5 -130.5q0 -63 -8 -174t-8 -156 q0 -88 25.5 -129t85.5 -51q6 -55 6 -86q0 -57 -20.5 -91t-57.5 -34q-274 0 -274 278q0 68 14 187t14 188q0 78 -22.5 112t-79.5 44q-19 39 -19 90z" />
<glyph unicode="|" horiz-adv-x="589" d="M178 -410v2020q0 43 31 51t203 8v-2025q0 -41 -30 -47.5t-204 -6.5z" />
<glyph unicode="}" horiz-adv-x="544" d="M35 -162q0 68 35 76q92 14 92 149q0 45 -8.5 163t-8.5 184q0 90 22.5 132t72.5 64q-47 23 -71 66t-24 131q0 63 8.5 172.5t8.5 157.5q0 86 -25.5 126.5t-85.5 53.5q-8 47 -8 86q0 55 21.5 90t58.5 35q272 0 272 -279q0 -68 -14 -187.5t-14 -189.5q0 -78 22.5 -111.5 t79.5 -43.5q20 -43 20 -88q0 -74 -43 -107q-29 -23 -41 -36t-25 -51t-13 -99q0 -72 14 -208t14 -185q0 -119 -87 -181.5t-230 -62.5q-43 61 -43 143z" />
<glyph unicode="~" d="M18 559q33 49 115 89t170 40q76 0 136.5 -37t107.5 -37q55 0 125 58q51 31 91 -12.5t42 -120.5q-35 -49 -112 -90t-167 -41q-76 0 -139 37.5t-104 37.5q-39 0 -94.5 -35.5t-84.5 -33.5q-37 4 -60.5 43t-25.5 102z" />
<glyph unicode="&#xa1;" horiz-adv-x="413" d="M53 -403l51 837q4 74 45 90.5t185 16.5l43 -877q2 -47 -52.5 -57t-271.5 -10zM76 893q0 61 39 103t106 42q80 0 113 -35.5t33 -109.5q0 -63 -39 -106.5t-107 -43.5q-145 0 -145 150z" />
<glyph unicode="&#xa2;" d="M150 475q0 465 237 549v135q0 53 50 72.5t159 19.5v-219q86 -27 86 -63q0 -104 -20 -162q-61 27 -130 27q-33 0 -56 -10.5t-48 -42t-38 -105.5t-13 -187q0 -137 14.5 -201.5t41 -81t83.5 -16.5q82 0 139 29q18 -61 19 -141q0 -31 -39 -57.5t-94 -36.5v-156 q0 -51 -48.5 -67.5t-160.5 -16.5v250q-94 27 -138 131t-44 350z" />
<glyph unicode="&#xa3;" horiz-adv-x="708" d="M31 563q0 117 6 157t35 40h63q29 459 332 459q205 0 205 -125q0 -57 -27 -136q-57 29 -119 29q-70 0 -110.5 -51t-50.5 -176h223q0 -117 -6.5 -157t-34.5 -40h-185q0 -193 15 -338l256 -16q16 -51 16 -105q0 -104 -96 -104h-393q-23 221 -27 563h-102z" />
<glyph unicode="&#xa5;" d="M43 1399q-6 23 14 28q27 6 248 7l57 -269q43 -193 54 -331q14 162 57 333l57 226q10 31 41 36t205 5l-162 -545h168q0 -109 -15 -149t-69 -40h-141l-29 -98v-61h254q0 -109 -15 -149t-69 -40h-170v-311v-2q0 -29 -28.5 -34t-200.5 -5v352h-252q0 109 15.5 149t68.5 40 h168v45l-37 114h-215q0 109 15.5 149t68.5 40h72z" />
<glyph unicode="&#xa6;" horiz-adv-x="468" d="M119 373q0 53 25.5 72.5t95.5 19.5q55 0 108 -16v-773q0 -51 -21.5 -66.5t-97.5 -15.5q-70 0 -110 13v766zM119 670v762q0 53 25.5 72.5t95.5 19.5q55 0 108 -17v-768q0 -51 -21.5 -66.5t-97.5 -15.5q-57 1 -110 13z" />
<glyph unicode="&#xa7;" horiz-adv-x="665" d="M45 780q0 119 98 201l-14 23q-61 90 -61 178q0 121 92 189.5t229 68.5q168 0 209 -88q8 -23 8 -47q0 -70 -39 -142q-55 31 -133 31q-102 0 -102 -64q0 -33 49 -96q10 -12 49 -55t72 -83t55 -75q55 -78 55 -170q0 -117 -98 -200q2 -2 5 -6.5t6 -9.5t5 -7q61 -94 62 -178 q0 -121 -93 -189.5t-229 -68.5q-172 0 -209 90q-8 14 -8 45q0 76 39 141q55 -31 131 -30q102 0 103 63q0 35 -50 96q-10 12 -49 55.5t-71.5 83t-55.5 74.5q-55 82 -55 170zM258 760q0 -47 47 -113q14 -25 39 -45q25 8 41 30.5t16 41.5q0 39 -47 110q-20 27 -41 45 q-25 -8 -40 -29.5t-15 -39.5z" />
<glyph unicode="&#xa8;" horiz-adv-x="544" d="M0 1284q0 53 34 90t91 37q125 0 125 -127q0 -53 -34 -89t-91 -36q-70 0 -97.5 31t-27.5 94zM297 1284q0 53 34 90t89 37q125 0 125 -127q0 -53 -34 -89t-91 -36q-70 0 -96.5 31t-26.5 94z" />
<glyph unicode="&#xa9;" horiz-adv-x="983" d="M66 1110q0 444 438 444q217 0 315.5 -101t98.5 -337q0 -221 -111 -342t-324 -121t-315 113t-102 344zM233 1116q0 -164 63.5 -233.5t190.5 -69.5q113 0 187 70.5t74 232.5q0 291 -248 291q-267 0 -267 -291zM334 1094q0 262 186 262q29 0 58.5 -11.5t29.5 -23.5 q0 -41 -10 -78q-45 10 -67.5 10t-37 -8t-26.5 -46t-12 -109q0 -78 13 -97.5t54 -19.5q14 0 70 12q12 -27 12 -74q0 -18 -29.5 -29.5t-64.5 -11.5q-100 0 -138 42.5t-38 181.5z" />
<glyph unicode="&#xaa;" horiz-adv-x="630" d="M61 846q0 258 205 258q59 0 115 -19v68q0 59 -26.5 80.5t-75.5 21.5q-78 0 -179 -38q-25 33 -24 96q0 43 14 63q55 78 256 78q106 0 164.5 -56.5t58.5 -164.5v-584q-127 -59 -276 -59q-113 0 -172.5 50t-59.5 206zM242 844q0 -96 77 -96q37 0 62 16v170q-20 12 -53 12 q-43 0 -64.5 -20.5t-21.5 -81.5z" />
<glyph unicode="&#xab;" horiz-adv-x="847" d="M12 512q0 41 73 169t144 237l74 106q39 0 73 -28.5t48 -57.5l14 -31q0 -47 -53 -145t-106 -174l-54 -76q25 -31 61 -79t95 -151.5t59 -152.5q-6 -14 -16 -35.5t-46 -57.5t-75 -36q-291 418 -291 512zM389 514q0 39 71.5 153.5t141.5 211.5l72 96q37 0 69.5 -26.5 t47.5 -55.5l14 -27q0 -94 -197 -346l-4 -6q23 -27 56.5 -69t90 -133t56.5 -136q-6 -14 -16.5 -33.5t-45 -53.5t-71.5 -34q-285 371 -285 459z" />
<glyph unicode="&#xac;" d="M70 551q0 109 69 108h598v-432q-49 -18 -104 -18q-111 0 -111 70v165h-434q-18 52 -18 107z" />
<glyph unicode="&#xad;" horiz-adv-x="540" d="M61 479q0 117 6.5 157t34.5 40h377q0 -117 -6 -157t-35 -40h-377z" />
<glyph unicode="&#xae;" horiz-adv-x="983" d="M66 1110q0 444 438 444q217 0 315.5 -101t98.5 -337q0 -221 -111 -342t-324 -121t-315 113t-102 344zM233 1116q0 -164 63.5 -233.5t190.5 -69.5q113 0 187 70.5t74 232.5q0 291 -248 291q-267 0 -267 -291zM373 866v480q0 12 16 12h76q162 0 162 -150q0 -82 -52 -127 q57 -53 66 -196q0 -12 -7 -17.5t-36 -5.5q-18 0 -59 4q-2 131 -43 181q-8 -2 -25 -3h-6v-161q0 -12 -11 -14.5t-81 -2.5zM465 1133q6 -2 16 -3q43 0 43 89q0 59 -39 59h-20v-145z" />
<glyph unicode="&#xaf;" horiz-adv-x="575" d="M0 1264q0 51 23.5 81.5t66.5 30.5h463q23 -45 22.5 -96t-24 -85t-62.5 -34h-473q-16 46 -16 103z" />
<glyph unicode="&#xb0;" horiz-adv-x="702" d="M137 1321q0 215 221 215q111 0 159 -46t48 -165q0 -217 -219 -217q-109 0 -159 46t-50 167zM285 1321q0 -76 65 -76q72 0 72 78q0 74 -64 74q-73 0 -73 -76z" />
<glyph unicode="&#xb1;" horiz-adv-x="823" d="M51 35q0 117 6 156.5t35 39.5h676q0 -117 -6 -156.5t-35 -39.5h-676zM55 614q0 117 6.5 157t34.5 40h219v219q0 29 40 35t157 6v-260h260q0 -117 -6 -157t-35 -40h-219v-219q0 -29 -40 -35t-157 -6v260h-260z" />
<glyph unicode="&#xb2;" horiz-adv-x="743" d="M55 662q0 74 31 110q53 68 136 152t122 133t39 92q0 72 -96 72q-74 0 -178 -62q-37 82 -37 137q0 72 106.5 115t224.5 43q145 0 205 -53t60 -160q0 -63 -32 -132t-62.5 -108.5t-93 -108.5t-74.5 -85h270q12 -61 12 -98q0 -117 -72 -117h-544q-17 35 -17 70z" />
<glyph unicode="&#xb3;" horiz-adv-x="712" d="M51 702q0 76 51 123q86 -45 179 -45q143 0 143 80q0 66 -90 74q-29 4 -119 4q-6 8 -16.5 47t-10.5 57q0 66 68 66q27 0 76 -4q47 41 47 84q0 63 -94.5 63t-178.5 -53q-45 51 -45 117q0 45 25 67q82 72 305 72q246 0 246 -182q0 -115 -98 -213q123 -61 123 -182 q0 -154 -102.5 -230t-260.5 -76q-145 0 -211 45q-37 25 -37 86z" />
<glyph unicode="&#xb4;" horiz-adv-x="372" d="M0 1270q49 68 148.5 154.5t119.5 86.5q35 0 64.5 -52t40.5 -116q-37 -41 -152 -119.5t-133 -78.5q-55 0 -86 121z" />
<glyph unicode="&#xb5;" horiz-adv-x="749" d="M59 -387v1323q0 100 117 100q68 0 113 -14v-750q0 -78 82 -77q47 0 88 18v723q0 53 23.5 76.5t88.5 23.5q72 0 117 -14v-973q-147 -70 -323 -69q-51 0 -76 24v-311q0 -94 -127 -94q-35 0 -103 14z" />
<glyph unicode="&#x3bc;" horiz-adv-x="749" d="M59 -387v1323q0 100 117 100q68 0 113 -14v-750q0 -78 82 -77q47 0 88 18v723q0 53 23.5 76.5t88.5 23.5q72 0 117 -14v-973q-147 -70 -323 -69q-51 0 -76 24v-311q0 -94 -127 -94q-35 0 -103 14z" />
<glyph unicode="&#xb6;" horiz-adv-x="1093" d="M45 854q0 600 404 600q152 0 258 -59v-1319q0 -82 -111 -82q-74 0 -119 16v404q-47 -23 -139 -23q-293 0 -293 463zM283 881q0 -309 116 -310q49 0 76 19v657q-25 14 -61 15q-131 0 -131 -381zM803 4v1319q0 51 25.5 71.5t95.5 20.5q47 0 110 -18v-1323 q0 -51 -22.5 -66.5t-98.5 -15.5q-69 0 -110 12z" />
<glyph unicode="&#xb7;" horiz-adv-x="481" d="M96 549q0 63 39 106t107 43q145 0 145 -149q0 -61 -39 -103.5t-106 -42.5q-80 0 -113 36t-33 110z" />
<glyph unicode="&#xb8;" horiz-adv-x="307" d="M0 -422q18 90 33 105q6 6 19.5 -0.5t33.5 -16.5t41 -10q57 0 57 65.5t-53 65.5l-92 -12l39 229h115l-23 -121h33q43 0 73.5 -36.5t30.5 -108.5q0 -80 -50 -136.5t-134 -56.5q-31 0 -61.5 8.5t-45.5 16.5z" />
<glyph unicode="&#xb9;" horiz-adv-x="718" d="M51 690q0 59 16.5 88t59.5 29h143v395l-184 -33q-29 45 -29 109q0 74 72 104q70 27 166 49.5t143 22.5q45 0 66 -8v-639h153q10 -61 11 -100q0 -66 -14.5 -90.5t-53.5 -24.5h-537q-12 51 -12 98z" />
<glyph unicode="&#xba;" horiz-adv-x="667" d="M55 1022q0 432 289 432q143 0 205.5 -91t62.5 -335q0 -436 -286 -436q-139 0 -205 94t-66 336zM246 1014q0 -139 19.5 -188.5t62.5 -49.5q47 0 70.5 53.5t23.5 188.5q0 139 -17.5 187t-62.5 48q-49 0 -72.5 -53t-23.5 -186z" />
<glyph unicode="&#xbb;" horiz-adv-x="847" d="M41 176q0 49 50 133t102 144l49 59q6 0 -42 65.5t-102.5 154.5t-54.5 134q0 35 30.5 65t61.5 40l29 12q33 -43 81 -108.5t129 -193.5t81 -169t-73 -157.5t-144 -211.5l-74 -96q-14 4 -34.5 12.5t-54.5 42t-34 74.5zM408 129q0 102 206 373l9 10q-25 33 -60 84t-94 157.5 t-59 153.5q0 35 33.5 64.5t68.5 40.5l33 12q291 -422 291 -512q0 -41 -73 -169t-145 -237l-73 -106q-16 4 -39 12t-60.5 42t-37.5 75z" />
<glyph unicode="&#xbc;" horiz-adv-x="1763" d="M51 690q0 59 16.5 88t59.5 29h143v395l-184 -33q-29 45 -29 109q0 74 72 104q70 27 166 49.5t143 22.5q45 0 66 -8v-639h153q10 -61 11 -100q0 -66 -14.5 -90.5t-53.5 -24.5h-537q-12 51 -12 98zM541 55l534 1344q16 55 80 55q84 0 158 -76l-541 -1355q-12 -43 -67 -43 q-84 -1 -164 75zM1030 252q0 35 12 72q33 113 108 242.5t144 203.5q80 92 209 92q45 0 94 -12v-500h97q18 -47 18 -104q0 -53 -20.5 -83t-51.5 -30h-43v-82q0 -66 -118 -65q-41 0 -95 12v135h-313q-41 43 -41 119zM1233 334h160l12 280q-53 -35 -102.5 -118.5t-69.5 -161.5z " />
<glyph unicode="&#xbd;" horiz-adv-x="1814" d="M51 690q0 59 16.5 88t59.5 29h143v395l-184 -33q-29 45 -29 109q0 74 72 104q70 27 166 49.5t143 22.5q45 0 66 -8v-639h153q10 -61 11 -100q0 -66 -14.5 -90.5t-53.5 -24.5h-537q-12 51 -12 98zM541 55l534 1344q16 55 80 55q84 0 158 -76l-541 -1355q-12 -43 -67 -43 q-84 -1 -164 75zM1130 70q0 74 31 110q53 68 136 152t122 133t39 92q0 72 -96 72q-74 0 -178 -62q-37 82 -37 138q0 72 106.5 114.5t225.5 42.5q145 0 204.5 -53t59.5 -160q0 -63 -32 -131.5t-62.5 -108.5t-93 -109t-74.5 -85h270q12 -61 12 -98q0 -117 -71 -117h-545 q-17 35 -17 70z" />
<glyph unicode="&#xbe;" horiz-adv-x="1757" d="M51 702q0 76 51 123q86 -45 179 -45q143 0 143 80q0 66 -90 74q-29 4 -119 4q-6 8 -16.5 47t-10.5 57q0 66 68 66q27 0 76 -4q47 41 47 84q0 63 -94.5 63t-178.5 -53q-45 51 -45 117q0 45 25 67q82 72 305 72q246 0 246 -182q0 -115 -98 -213q123 -61 123 -182 q0 -154 -102.5 -230t-260.5 -76q-145 0 -211 45q-37 25 -37 86zM512 55l535 1344q16 55 79 55q84 0 158 -76l-541 -1355q-12 -43 -67 -43q-84 -1 -164 75zM1024 252q0 35 12 72q33 113 108 242.5t144 203.5q80 92 209 92q45 0 94 -12v-500h97q18 -47 18 -104 q0 -53 -20.5 -83t-51.5 -30h-43v-82q0 -66 -118 -65q-43 0 -95 12v135h-313q-41 43 -41 119zM1227 334h159l13 280q-53 -35 -102.5 -118.5t-69.5 -161.5z" />
<glyph unicode="&#xbf;" horiz-adv-x="638" d="M29 -121q0 117 31.5 198t96 168t85.5 126q18 41 0.5 113.5t-4.5 88.5q27 29 135 29q31 0 71 -4q41 -76 41 -166q0 -61 -26 -115q-33 -66 -85 -145.5t-73.5 -128.5t-21.5 -102q0 -55 29.5 -83t99.5 -28q41 0 75.5 11.5t48.5 21.5l15 10q37 -98 37 -184q0 -41 -86 -65.5 t-185 -24.5q-141 0 -212.5 77.5t-71.5 202.5zM197 891q0 61 38.5 103t106.5 42q80 0 112.5 -35.5t32.5 -109.5q0 -63 -38.5 -106.5t-106.5 -43.5q-145 0 -145 150z" />
<glyph unicode="&#xc0;" horiz-adv-x="894" d="M4 4l342 1391q8 43 92 43q70 0 109 -8l342 -1393q4 -14 -3 -22.5t-31 -13.5t-69 -5q-74 0 -133 4l-67 326h-273l-59 -287q-4 -16 -9 -24.5t-27.5 -13.5t-67.5 -5q-74 0 -146 8zM203 1747q10 63 39.5 115.5t64.5 52.5q20 0 119.5 -87t148.5 -155q-4 -14 -10 -34.5 t-28.5 -55.5t-49.5 -35q-18 0 -132.5 79t-151.5 120zM356 532h187l-39 191q-31 145 -53 387q-29 -260 -56 -387z" />
<glyph unicode="&#xc1;" horiz-adv-x="894" d="M4 4l342 1391q8 43 92 43q70 0 109 -8l342 -1393q4 -14 -3 -22.5t-31 -13.5t-69 -5q-74 0 -133 4l-67 326h-273l-59 -287q-4 -16 -9 -24.5t-27.5 -13.5t-67.5 -5q-74 0 -146 8zM338 1679q49 68 148.5 155t119.5 87q35 0 64.5 -52t40.5 -116q-37 -41 -152 -120t-133 -79 q-55 0 -86 121zM356 532h187l-39 191q-31 145 -53 387q-29 -260 -56 -387z" />
<glyph unicode="&#xc2;" horiz-adv-x="894" d="M4 4l342 1391q8 43 92 43q70 0 109 -8l342 -1393q4 -14 -3 -22.5t-31 -13.5t-69 -5q-74 0 -133 4l-67 326h-273l-59 -287q-4 -16 -9 -24.5t-27.5 -13.5t-67.5 -5q-74 0 -146 8zM178 1618l234 274q23 6 45 6q37 0 63 -28q201 -205 201 -258q0 -55 -158 -56 q-68 61 -108 140q-78 -137 -127 -137q-111 0 -150 59zM356 532h187l-39 191q-31 145 -53 387q-29 -260 -56 -387z" />
<glyph unicode="&#xc3;" horiz-adv-x="894" d="M4 4l342 1391q8 43 92 43q70 0 109 -8l342 -1393q4 -14 -3 -22.5t-31 -13.5t-69 -5q-74 0 -133 4l-67 326h-273l-59 -287q-4 -16 -9 -24.5t-27.5 -13.5t-67.5 -5q-74 0 -146 8zM139 1688q49 84 122 127t134 43q43 0 87 -44.5t81 -44.5q51 0 80 32t43 32q18 0 36.5 -32 t27.5 -64l10 -31q-12 -16 -35 -42t-86.5 -69t-120.5 -43q-55 0 -90 43t-72 43t-67.5 -31.5t-42.5 -31.5q-27 0 -53.5 27.5t-40.5 56.5zM356 532h187l-39 191q-31 145 -53 387q-29 -260 -56 -387z" />
<glyph unicode="&#xc4;" horiz-adv-x="894" d="M4 4l342 1391q8 43 92 43q70 0 109 -8l342 -1393q4 -14 -3 -22.5t-31 -13.5t-69 -5q-74 0 -133 4l-67 326h-273l-59 -287q-4 -16 -9 -24.5t-27.5 -13.5t-67.5 -5q-74 0 -146 8zM184 1694q0 53 34 90t91 37q125 0 125 -127q0 -53 -33.5 -89t-91.5 -36q-70 0 -97.5 31 t-27.5 94zM356 532h187l-39 191q-31 145 -53 387q-29 -260 -56 -387zM481 1694q0 53 34 90t89 37q125 0 125 -127q0 -53 -33.5 -89t-91.5 -36q-70 0 -96.5 31t-26.5 94z" />
<glyph unicode="&#xc5;" horiz-adv-x="894" d="M4 4l342 1391q8 43 92 43q70 0 109 -8l342 -1393q4 -14 -3 -22.5t-31 -13.5t-69 -5q-74 0 -133 4l-67 326h-273l-59 -287q-4 -16 -9 -24.5t-27.5 -13.5t-67.5 -5q-74 0 -146 8zM231 1747q0 215 222 215q111 0 158.5 -46t47.5 -165q0 -217 -219 -217q-109 0 -159 46 t-50 167zM356 532h187l-39 191q-31 145 -53 387q-29 -260 -56 -387zM389 1746.5q0 -65.5 55 -65.5q61 0 62 68q0 63 -53 63q-64 0 -64 -65.5z" />
<glyph unicode="&#xc6;" horiz-adv-x="1191" d="M33 4l516 1391q12 39 74 39h548q0 -143 -5 -174t-36 -31h-262v-348h248q0 -139 -5 -174t-34 -35h-209v-467h289q0 -147 -5 -176t-36 -29h-477v326h-260l-96 -287q-8 -25 -29 -34t-76 -9q-73 0 -145 8zM449 532h190v660q-61 -276 -129 -475z" />
<glyph unicode="&#xc7;" horiz-adv-x="661" d="M45 670q0 795 410 794q119 0 156.5 -31.5t37.5 -89.5q0 -68 -33 -137q-47 35 -106 35q-223 0 -223 -553q0 -262 35.5 -362.5t123.5 -100.5q102 0 160 31q31 -66 31 -135q0 -127 -191 -148l-16 -90h33q43 0 73.5 -36.5t30.5 -108.5q0 -80 -50 -136.5t-134 -56.5 q-31 0 -61.5 8.5t-47.5 16.5l-14 8q18 90 33 105q6 6 19.5 -0.5t34 -16.5t40.5 -10q57 0 57 65.5t-53 65.5l-92 -12l33 198q-102 10 -161.5 73t-92.5 213.5t-33 410.5z" />
<glyph unicode="&#xc8;" horiz-adv-x="614" d="M61 0v1393q2 41 41 41h492q0 -143 -5 -174t-36 -31h-262v-348h248q0 -139 -5.5 -174t-33.5 -35h-209v-467h289q0 -147 -5.5 -176t-35.5 -29h-478zM100 1747q10 63 40 115.5t65 52.5q20 0 119.5 -87t148.5 -155q-4 -14 -10 -34.5t-28.5 -55.5t-49.5 -35q-18 0 -133 79 t-152 120z" />
<glyph unicode="&#xc9;" horiz-adv-x="614" d="M61 0v1393q2 41 41 41h492q0 -143 -5 -174t-36 -31h-262v-348h248q0 -139 -5.5 -174t-33.5 -35h-209v-467h289q0 -147 -5.5 -176t-35.5 -29h-478zM236 1679q49 68 148 155t120 87q35 0 64.5 -52t39.5 -116q-37 -41 -151.5 -120t-132.5 -79q-55 0 -86 121z" />
<glyph unicode="&#xca;" horiz-adv-x="614" d="M61 0v1393q2 41 41 41h492q0 -143 -5 -174t-36 -31h-262v-348h248q0 -139 -5.5 -174t-33.5 -35h-209v-467h289q0 -147 -5.5 -176t-35.5 -29h-478zM76 1618l233 274q23 6 45 6q37 0 64 -28q201 -205 200 -258q0 -55 -157 -56q-68 61 -109 140q-78 -137 -127 -137 q-110 0 -149 59z" />
<glyph unicode="&#xcb;" horiz-adv-x="614" d="M61 0v1393q2 41 41 41h492q0 -143 -5 -174t-36 -31h-262v-348h248q0 -139 -5.5 -174t-33.5 -35h-209v-467h289q0 -147 -5.5 -176t-35.5 -29h-478zM82 1694q0 53 34 90t91 37q125 0 125 -127q0 -53 -34 -89t-91 -36q-70 0 -97.5 31t-27.5 94zM379 1694q0 53 33.5 90 t89.5 37q125 0 125 -127q0 -53 -34 -89t-91 -36q-70 0 -96.5 31t-26.5 94z" />
<glyph unicode="&#xcc;" horiz-adv-x="354" d="M-68 1747q10 63 40 115.5t65 52.5q20 0 119.5 -87t148.5 -155q-4 -14 -10 -34.5t-28.5 -55.5t-49.5 -35q-18 0 -133 79t-152 120zM59 0v1333q0 76 30 88.5t204 12.5v-1393q0 -31 -30 -36t-204 -5z" />
<glyph unicode="&#xcd;" horiz-adv-x="354" d="M59 0v1333q0 76 30 88.5t204 12.5v-1393q0 -31 -30 -36t-204 -5zM68 1679q49 68 148 155t120 87q35 0 64.5 -52t39.5 -116q-37 -41 -151.5 -120t-132.5 -79q-55 0 -86 121z" />
<glyph unicode="&#xce;" horiz-adv-x="354" d="M-92 1618l233 274q23 6 45 6q37 0 64 -28q201 -205 201 -258q0 -55 -158 -56q-68 61 -109 140q-78 -137 -127 -137q-110 0 -149 59zM59 0v1333q0 76 30 88.5t204 12.5v-1393q0 -31 -30 -36t-204 -5z" />
<glyph unicode="&#xcf;" horiz-adv-x="354" d="M-86 1694q0 53 34 90t91 37q125 0 125 -127q0 -53 -34 -89t-91 -36q-70 0 -97.5 31t-27.5 94zM59 0v1333q0 76 30 88.5t204 12.5v-1393q0 -31 -30 -36t-204 -5zM211 1694q0 53 34 90t89 37q125 0 125 -127q0 -53 -34 -89t-91 -36q-70 0 -96.5 31t-26.5 94z" />
<glyph unicode="&#xd0;" horiz-adv-x="757" d="M-8 645q0 117 6 157t35 40h28v551q0 41 58 41h196q143 0 227.5 -49.5t129.5 -186.5t45 -385q0 -430 -92.5 -621.5t-298.5 -191.5h-265v645h-69zM291 219l41 -2q20 0 36.5 11.5t33 49t26.5 101t17.5 173.5t7.5 261q0 176 -16.5 269.5t-41 118t-65.5 24.5h-39v-383h102 q0 -117 -6 -157t-35 -40h-61v-426z" />
<glyph unicode="&#xd1;" horiz-adv-x="880" d="M61 0v1393q0 41 41 41h183l213 -539q59 -156 116 -420q-25 223 -24 440v478q0 31 29.5 36t199.5 5v-1393q0 -41 -41 -41h-178l-217 549q-51 131 -121 446q29 -283 29 -463v-491q0 -31 -29 -36t-201 -5zM141 1688q49 84 122 127t134 43q43 0 87 -44.5t81 -44.5 q39 0 60.5 16.5t35 32t27.5 15.5q18 0 36.5 -32t29.5 -64l8 -31q-12 -16 -34.5 -42t-86 -69t-121.5 -43q-53 0 -90 43t-71.5 43t-67.5 -31.5t-43 -31.5q-27 0 -53.5 27.5t-38.5 56.5z" />
<glyph unicode="&#xd2;" horiz-adv-x="835" d="M41 725q0 406 93 566.5t298 160.5t285 -151.5t80 -567.5q0 -422 -90.5 -586.5t-296.5 -164.5q-141 0 -217 59t-114 220t-38 464zM180 1747q10 63 40 115.5t65 52.5q20 0 119.5 -87t148.5 -155q-4 -14 -10 -34.5t-28.5 -55.5t-49.5 -35q-18 0 -133 79t-152 120zM303 674 q0 -258 22.5 -356.5t96.5 -98.5t98.5 111.5t24.5 394.5q0 289 -21.5 390.5t-99.5 101.5q-70 0 -95.5 -119t-25.5 -424z" />
<glyph unicode="&#xd3;" horiz-adv-x="835" d="M41 725q0 406 93 566.5t298 160.5t285 -151.5t80 -567.5q0 -422 -90.5 -586.5t-296.5 -164.5q-141 0 -217 59t-114 220t-38 464zM303 674q0 -258 22.5 -356.5t96.5 -98.5t98.5 111.5t24.5 394.5q0 289 -21.5 390.5t-99.5 101.5q-70 0 -95.5 -119t-25.5 -424zM315 1679 q49 68 148.5 155t120.5 87q35 0 64.5 -52t39.5 -116q-37 -41 -151.5 -120t-133.5 -79q-55 0 -86 121z" />
<glyph unicode="&#xd4;" horiz-adv-x="835" d="M41 725q0 406 93 566.5t298 160.5t285 -151.5t80 -567.5q0 -422 -90.5 -586.5t-296.5 -164.5q-141 0 -217 59t-114 220t-38 464zM156 1618l233 274q20 6 45 6q37 0 64 -28q201 -205 200 -258q0 -55 -157 -56q-68 61 -109 140q-78 -137 -127 -137q-110 0 -149 59zM303 674 q0 -258 22.5 -356.5t96.5 -98.5t98.5 111.5t24.5 394.5q0 289 -21.5 390.5t-99.5 101.5q-70 0 -95.5 -119t-25.5 -424z" />
<glyph unicode="&#xd5;" horiz-adv-x="835" d="M41 725q0 406 93 566.5t298 160.5t285 -151.5t80 -567.5q0 -422 -90.5 -586.5t-296.5 -164.5q-141 0 -217 59t-114 220t-38 464zM117 1688q49 84 121.5 127t134.5 43q43 0 87 -44.5t81 -44.5q39 0 60.5 16.5t34.5 32t28 15.5q18 0 36.5 -32t28.5 -64l8 -31 q-12 -16 -34.5 -42t-86 -69t-120.5 -43q-53 0 -90 43t-72 43t-68 -31.5t-43 -31.5q-27 0 -53.5 27.5t-38.5 56.5zM303 674q0 -258 22.5 -356.5t96.5 -98.5t98.5 111.5t24.5 394.5q0 289 -21.5 390.5t-99.5 101.5q-70 0 -95.5 -119t-25.5 -424z" />
<glyph unicode="&#xd6;" horiz-adv-x="835" d="M41 725q0 406 93 566.5t298 160.5t285 -151.5t80 -567.5q0 -422 -90.5 -586.5t-296.5 -164.5q-141 0 -217 59t-114 220t-38 464zM162 1694q0 53 33.5 90t91.5 37q125 0 125 -127q0 -53 -34 -89t-91 -36q-70 0 -97.5 31t-27.5 94zM303 674q0 -258 22.5 -356.5t96.5 -98.5 t98.5 111.5t24.5 394.5q0 289 -21.5 390.5t-99.5 101.5q-70 0 -95.5 -119t-25.5 -424zM459 1694q0 53 33.5 90t89.5 37q125 0 125 -127q0 -53 -34 -89t-91 -36q-70 0 -96.5 31t-26.5 94z" />
<glyph unicode="&#xd7;" d="M106 393l168 185l-168 184q111 109 138 117q18 6 30 -7l136 -149l135 149q20 20 51 -3t117 -107l-170 -184l170 -185q-111 -109 -138 -117q-18 -6 -30 7l-135 147l-136 -147q-20 -20 -51 3t-117 107z" />
<glyph unicode="&#xd8;" horiz-adv-x="944" d="M35 37q-2 8 90 246q-31 164 -31 442q0 408 90 568.5t295 160.5q172 0 250 -98q39 98 49 117q131 -14 142 -68q4 -35 -93 -315q23 -147 23 -357q0 -422 -90 -587.5t-297 -165.5q-170 0 -250 90l-41 -101q-41 -2 -86 18.5t-51 49.5zM356 559l199 615q-27 45 -78 45 q-70 0 -95.5 -120t-25.5 -425v-115zM397 240q20 -23 58 -23q35 0 56 14.5t44 61.5t33 154.5t10 277.5v121q-47 -147 -201 -606z" />
<glyph unicode="&#xd9;" horiz-adv-x="841" d="M61 393v998q0 33 30 38t208 5v-1049q0 -106 26.5 -150.5t102.5 -44.5q74 0 119 25v1176q0 33 29.5 38t203.5 5v-1377q-45 -29 -139 -53t-213 -24q-117 0 -192.5 30.5t-111.5 92t-49.5 128t-13.5 162.5zM172 1747q10 63 40 115.5t64 52.5q20 0 120 -87t149 -155 q-4 -14 -10.5 -34.5t-29 -55.5t-48.5 -35q-18 0 -133 79t-152 120z" />
<glyph unicode="&#xda;" horiz-adv-x="841" d="M61 393v998q0 33 30 38t208 5v-1049q0 -106 26.5 -150.5t102.5 -44.5q74 0 119 25v1176q0 33 29.5 38t203.5 5v-1377q-45 -29 -139 -53t-213 -24q-117 0 -192.5 30.5t-111.5 92t-49.5 128t-13.5 162.5zM307 1679q49 68 148.5 155t119.5 87q35 0 65 -52t40 -116 q-37 -41 -151.5 -120t-133.5 -79q-55 0 -86 121z" />
<glyph unicode="&#xdb;" horiz-adv-x="841" d="M61 393v998q0 33 30 38t208 5v-1049q0 -106 26.5 -150.5t102.5 -44.5q74 0 119 25v1176q0 33 29.5 38t203.5 5v-1377q-45 -29 -139 -53t-213 -24q-117 0 -192.5 30.5t-111.5 92t-49.5 128t-13.5 162.5zM147 1618l234 274q20 6 45 6q37 0 63 -28q201 -205 201 -258 q0 -55 -158 -56q-68 61 -108 140q-78 -137 -127 -137q-111 0 -150 59z" />
<glyph unicode="&#xdc;" horiz-adv-x="841" d="M61 393v998q0 33 30 38t208 5v-1049q0 -106 26.5 -150.5t102.5 -44.5q74 0 119 25v1176q0 33 29.5 38t203.5 5v-1377q-45 -29 -139 -53t-213 -24q-117 0 -192.5 30.5t-111.5 92t-49.5 128t-13.5 162.5zM154 1694q0 53 33.5 90t91.5 37q125 0 124 -127q0 -53 -33.5 -89 t-90.5 -36q-70 0 -97.5 31t-27.5 94zM451 1694q0 53 33.5 90t88.5 37q125 0 125 -127q0 -53 -33.5 -89t-91.5 -36q-70 0 -96 31t-26 94z" />
<glyph unicode="&#xdd;" horiz-adv-x="753" d="M12 1399q-6 23 15 28q27 6 247 7l60 -269q37 -160 57 -393q16 193 60 395l49 226q8 31 38.5 36t206.5 5l-247 -832v-561v-2q0 -29 -29 -34t-201 -5v586zM276 1679q49 68 148.5 155t120.5 87q35 0 64.5 -52t39.5 -116q-37 -41 -151.5 -120t-132.5 -79q-55 0 -86 121z" />
<glyph unicode="&#xde;" horiz-adv-x="714" d="M61 0v1378q0 37 29 46.5t127 9.5h74v-246h4q207 0 303 -91t96 -331q0 -133 -32.5 -227.5t-91 -142.5t-123 -68.5t-142.5 -20.5h-14v-266q0 -31 -32 -36t-198 -5zM291 526q14 -8 41 -8q53 0 78.5 57.5t25.5 219.5q0 195 -90 194l-55 -6v-457z" />
<glyph unicode="&#xdf;" horiz-adv-x="937" d="M53 8q29 70 29 193l-8 925q0 158 90 238t250 80q213 0 318.5 -83t105.5 -216q0 -61 -28 -106.5t-59.5 -67t-59 -55t-27.5 -74.5q0 -37 42 -94.5t92 -113.5t92 -150.5t42 -194.5q0 -137 -81 -222t-222 -85q-121 0 -184.5 28.5t-63.5 69.5q0 88 55 151q53 -45 133 -45 q102 0 103 103q0 59 -41 129.5t-90 127t-90 134.5t-41 149q0 61 28.5 111.5t61 76t61.5 59.5t29 69q0 86 -164 86q-76 0 -98.5 -51.5t-22.5 -180.5l8 -868q0 -86 -26.5 -118.5t-108.5 -32.5z" />
<glyph unicode="&#xe0;" horiz-adv-x="692" d="M41 299q0 193 64.5 265.5t170.5 72.5q84 0 132 -31v142q0 41 -19.5 58t-66.5 17q-127 0 -246 -43q-31 59 -31 133q0 49 29 72q27 20 110.5 39.5t194.5 19.5q141 0 199.5 -56t58.5 -193v-97q0 -502 -10 -653q-111 -66 -295 -65q-66 0 -111 10t-90 41.5t-67.5 98.5 t-22.5 169zM100 1337q10 63 40 115.5t65 52.5q20 0 119.5 -87t148.5 -154l-10 -35t-28.5 -55.5t-49.5 -34.5q-18 0 -133 78.5t-152 119.5zM283 305q0 -76 14 -106.5t51 -30.5t55 20q4 45 5 265q-18 16 -54 16q-37 0 -54 -36t-17 -128z" />
<glyph unicode="&#xe1;" horiz-adv-x="692" d="M41 299q0 193 64.5 265.5t170.5 72.5q84 0 132 -31v142q0 41 -19.5 58t-66.5 17q-127 0 -246 -43q-31 59 -31 133q0 49 29 72q27 20 110.5 39.5t194.5 19.5q141 0 199.5 -56t58.5 -193v-97q0 -502 -10 -653q-111 -66 -295 -65q-66 0 -111 10t-90 41.5t-67.5 98.5 t-22.5 169zM236 1270q49 68 148 154.5t120 86.5q35 0 64.5 -52t39.5 -116q-37 -41 -151.5 -119.5t-132.5 -78.5q-55 0 -86 121zM283 305q0 -76 14 -106.5t51 -30.5t55 20q4 45 5 265q-18 16 -54 16q-37 0 -54 -36t-17 -128z" />
<glyph unicode="&#xe2;" horiz-adv-x="692" d="M41 299q0 193 64.5 265.5t170.5 72.5q84 0 132 -31v142q0 41 -19.5 58t-66.5 17q-127 0 -246 -43q-31 59 -31 133q0 49 29 72q27 20 110.5 39.5t194.5 19.5q141 0 199.5 -56t58.5 -193v-97q0 -502 -10 -653q-111 -66 -295 -65q-66 0 -111 10t-90 41.5t-67.5 98.5 t-22.5 169zM76 1208l233 275q23 6 45 6q37 0 64 -29q201 -205 200 -258q0 -55 -157 -55q-68 61 -109 139q-78 -137 -127 -137q-110 0 -149 59zM283 305q0 -76 14 -106.5t51 -30.5t55 20q4 45 5 265q-18 16 -54 16q-37 0 -54 -36t-17 -128z" />
<glyph unicode="&#xe3;" horiz-adv-x="692" d="M37 1278q49 84 121.5 127t134.5 43q43 0 87 -44t81 -44q51 0 79.5 31.5t43.5 31.5q18 0 36.5 -31.5t26.5 -64.5l10 -31q-12 -16 -34.5 -41.5t-86 -68.5t-120.5 -43q-55 0 -90 43t-72 43t-67.5 -32t-43.5 -32q-27 0 -53.5 28t-40.5 56zM41 299q0 193 64.5 265.5 t170.5 72.5q84 0 132 -31v142q0 41 -19.5 58t-66.5 17q-127 0 -246 -43q-31 59 -31 133q0 49 29 72q27 20 110.5 39.5t194.5 19.5q141 0 199.5 -56t58.5 -193v-97q0 -502 -10 -653q-111 -66 -295 -65q-66 0 -111 10t-90 41.5t-67.5 98.5t-22.5 169zM283 305q0 -76 14 -106.5 t51 -30.5t55 20q4 45 5 265q-18 16 -54 16q-37 0 -54 -36t-17 -128z" />
<glyph unicode="&#xe4;" horiz-adv-x="692" d="M41 299q0 193 64.5 265.5t170.5 72.5q84 0 132 -31v142q0 41 -19.5 58t-66.5 17q-127 0 -246 -43q-31 59 -31 133q0 49 29 72q27 20 110.5 39.5t194.5 19.5q141 0 199.5 -56t58.5 -193v-97q0 -502 -10 -653q-111 -66 -295 -65q-66 0 -111 10t-90 41.5t-67.5 98.5 t-22.5 169zM82 1284q0 53 34 90t91 37q125 0 125 -127q0 -53 -34 -89t-91 -36q-70 0 -97.5 31t-27.5 94zM283 305q0 -76 14 -106.5t51 -30.5t55 20q4 45 5 265q-18 16 -54 16q-37 0 -54 -36t-17 -128zM379 1284q0 53 33.5 90t89.5 37q125 0 125 -127q0 -53 -34 -89t-91 -36 q-70 0 -96.5 31t-26.5 94z" />
<glyph unicode="&#xe5;" horiz-adv-x="692" d="M41 299q0 193 64.5 265.5t170.5 72.5q84 0 132 -31v142q0 41 -19.5 58t-66.5 17q-127 0 -246 -43q-31 59 -31 133q0 49 29 72q27 20 110.5 39.5t194.5 19.5q141 0 199.5 -56t58.5 -193v-97q0 -502 -10 -653q-111 -66 -295 -65q-66 0 -111 10t-90 41.5t-67.5 98.5 t-22.5 169zM129 1337q0 215 221 215q111 0 159 -46t48 -165q0 -217 -219 -217q-109 0 -159 46t-50 167zM283 305q0 -76 14 -106.5t51 -30.5t55 20q4 45 5 265q-18 16 -54 16q-37 0 -54 -36t-17 -128zM287 1337.5q0 -65.5 55 -65.5q61 0 61 67q0 63 -53 64q-63 0 -63 -65.5z " />
<glyph unicode="&#xe6;" horiz-adv-x="1097" d="M41 319q0 193 64.5 276t162.5 83q92 0 140 -31v119q0 76 -99 76q-135 0 -233 -54q-31 51 -31 140q0 39 25 59q70 57 323 57q131 0 172 -75q68 76 215 75q262 0 262 -333q0 -178 -28 -291q-84 -10 -180 -10q-86 0 -177 12q2 -141 23.5 -180t87.5 -39q123 0 242 57 q18 -61 18 -203q0 -27 -88 -51t-202.5 -24t-172.5 43q-90 -45 -233 -45q-70 0 -112 9t-88 39.5t-68.5 103t-22.5 187.5zM283 326q0 -100 11 -129t50 -29q49 0 64 20v308q-23 14 -54 14q-71 0 -71 -184zM659 598q78 -18 150 -10q10 31 10 106q0 94 -14 123t-55 29 q-83 0 -91 -248z" />
<glyph unicode="&#xe7;" horiz-adv-x="598" d="M43 489q0 141 22.5 246t56.5 163t85 92t97 44t104 10q76 0 123 -27.5t47 -76.5q0 -61 -21 -123q-61 27 -129 27q-43 0 -71.5 -20.5t-51 -102.5t-22.5 -227q0 -178 28.5 -245t108.5 -67q74 0 131 29q18 -76 18 -121q0 -86 -161 -106l-19 -101h33q43 0 73.5 -36.5 t30.5 -108.5q0 -80 -50 -136.5t-134 -56.5q-31 0 -61.5 8.5t-47.5 16.5l-14 8q18 90 33 105q6 6 19.5 -0.5t34 -16.5t40.5 -10q57 0 57 65.5t-53 65.5l-92 -12l35 209q-135 10 -192.5 117t-57.5 388z" />
<glyph unicode="&#xe8;" horiz-adv-x="708" d="M45 463q0 178 27.5 299t82 179t113 80.5t138.5 22.5q262 0 262 -333q0 -178 -29 -291q-127 -27 -354 -31q4 -100 32.5 -143t100.5 -43q98 0 217 57q18 -61 18 -154q0 -59 -83 -92.5t-208 -33.5q-74 0 -129 21.5t-99 73.5t-66.5 149.5t-22.5 238.5zM137 1337 q10 63 40 115.5t65 52.5q20 0 119.5 -87t148.5 -154l-10 -35t-28.5 -55.5t-49.5 -34.5q-18 0 -133 78.5t-152 119.5zM283 569q113 0 151 19q10 31 10 106q0 94 -14 123t-55 29q-47 0 -67.5 -66t-24.5 -211z" />
<glyph unicode="&#xe9;" horiz-adv-x="708" d="M45 463q0 178 27.5 299t82 179t113 80.5t138.5 22.5q262 0 262 -333q0 -178 -29 -291q-127 -27 -354 -31q4 -100 32.5 -143t100.5 -43q98 0 217 57q18 -61 18 -154q0 -59 -83 -92.5t-208 -33.5q-74 0 -129 21.5t-99 73.5t-66.5 149.5t-22.5 238.5zM272 1270 q49 68 148.5 154.5t120.5 86.5q35 0 64.5 -52t39.5 -116q-37 -41 -151.5 -119.5t-133.5 -78.5q-55 0 -86 121zM283 569q113 0 151 19q10 31 10 106q0 94 -14 123t-55 29q-47 0 -67.5 -66t-24.5 -211z" />
<glyph unicode="&#xea;" horiz-adv-x="708" d="M45 463q0 178 27.5 299t82 179t113 80.5t138.5 22.5q262 0 262 -333q0 -178 -29 -291q-127 -27 -354 -31q4 -100 32.5 -143t100.5 -43q98 0 217 57q18 -61 18 -154q0 -59 -83 -92.5t-208 -33.5q-74 0 -129 21.5t-99 73.5t-66.5 149.5t-22.5 238.5zM113 1208l233 275 q23 6 45 6q37 0 64 -29q201 -205 200 -258q0 -55 -157 -55q-68 61 -109 139q-78 -137 -127 -137q-110 0 -149 59zM283 569q113 0 151 19q10 31 10 106q0 94 -14 123t-55 29q-47 0 -67.5 -66t-24.5 -211z" />
<glyph unicode="&#xeb;" horiz-adv-x="708" d="M45 463q0 178 27.5 299t82 179t113 80.5t138.5 22.5q262 0 262 -333q0 -178 -29 -291q-127 -27 -354 -31q4 -100 32.5 -143t100.5 -43q98 0 217 57q18 -61 18 -154q0 -59 -83 -92.5t-208 -33.5q-74 0 -129 21.5t-99 73.5t-66.5 149.5t-22.5 238.5zM119 1284q0 53 33.5 90 t91.5 37q125 0 125 -127q0 -53 -34 -89t-91 -36q-70 0 -97.5 31t-27.5 94zM283 569q113 0 151 19q10 31 10 106q0 94 -14 123t-55 29q-47 0 -67.5 -66t-24.5 -211zM416 1284q0 53 33.5 90t89.5 37q125 0 125 -127q0 -53 -34 -89t-91 -36q-70 0 -96.5 31t-26.5 94z" />
<glyph unicode="&#xec;" horiz-adv-x="368" d="M-57 1337q10 63 39.5 115.5t64.5 52.5q20 0 119.5 -87t148.5 -154l-10 -35t-28.5 -55.5t-49.5 -34.5q-18 0 -132.5 78.5t-151.5 119.5zM68 0v924q0 72 39.5 86t193.5 14v-983q0 -31 -29.5 -36t-203.5 -5z" />
<glyph unicode="&#xed;" horiz-adv-x="368" d="M68 0v924q0 72 39.5 86t193.5 14v-983q0 -31 -29.5 -36t-203.5 -5zM78 1270q49 68 148.5 154.5t119.5 86.5q35 0 64.5 -52t40.5 -116q-37 -41 -152 -119.5t-133 -78.5q-55 0 -86 121z" />
<glyph unicode="&#xee;" horiz-adv-x="368" d="M-82 1208l234 275q20 6 45 6q37 0 63 -29q201 -205 201 -258q0 -55 -158 -55q-68 61 -108 139q-78 -137 -127 -137q-111 0 -150 59zM68 0v924q0 72 39.5 86t193.5 14v-983q0 -31 -29.5 -36t-203.5 -5z" />
<glyph unicode="&#xef;" horiz-adv-x="368" d="M-76 1284q0 53 34 90t91 37q125 0 125 -127q0 -53 -34 -89t-91 -36q-70 0 -97.5 31t-27.5 94zM68 0v924q0 72 39.5 86t193.5 14v-983q0 -31 -29.5 -36t-203.5 -5zM221 1284q0 53 34 90t89 37q125 0 125 -127q0 -53 -34 -89t-91 -36q-70 0 -96.5 31t-26.5 94z" />
<glyph unicode="&#xf0;" horiz-adv-x="843" d="M88 528q0 244 83 380t218 136q74 0 127 -32q-25 92 -63 164l-185 -72q-23 57 -32 82.5t-16 55.5t-3 42t19 19l100 36q-12 14 -82 84q27 45 75 74t95 29q53 0 82 -35q41 -41 59 -64l121 48q23 -57 32 -83t16 -55.5t3 -41t-18 -17.5l-47 -18q123 -262 123 -668 q0 -139 -14.5 -240.5t-49.5 -190.5t-105.5 -135t-172.5 -46q-193 0 -279 122.5t-86 425.5zM324 485q0 -317 122 -317q74 0 94.5 96t20.5 305q0 88 -8 219q-39 53 -96 54q-70 0 -101.5 -105t-31.5 -252z" />
<glyph unicode="&#xf1;" horiz-adv-x="739" d="M61 1278q49 84 122 127t134 43q43 0 87.5 -44t80.5 -44q51 0 80 31.5t43 31.5q18 0 37 -31.5t27 -64.5l10 -31q-12 -16 -34.5 -41.5t-86 -68.5t-121.5 -43q-55 0 -90 43t-71.5 43t-67.5 -32t-43 -32q-27 0 -53.5 28t-40.5 56zM68 0v977q51 25 147 46t170 21 q160 0 227.5 -57t67.5 -207v-739q0 -31 -31 -36t-207 -5v709q0 82 -13 110.5t-54 28.5q-43 0 -78 -25v-782q0 -31 -29.5 -36t-199.5 -5z" />
<glyph unicode="&#xf2;" horiz-adv-x="718" d="M31 514q0 530 340 530q172 0 245.5 -111.5t73.5 -410.5q0 -289 -83 -415.5t-253 -126.5q-121 0 -185.5 36.5t-101 154.5t-36.5 343zM117 1337q10 63 39.5 115.5t64.5 52.5q20 0 119.5 -87t148.5 -154l-10 -35t-28.5 -55.5t-49.5 -34.5q-18 0 -132.5 78.5t-151.5 119.5z M283 516q0 -154 9 -231.5t24.5 -96t43.5 -18.5q23 0 38.5 18.5t27.5 99.5t12 228q0 213 -14 272.5t-62 59.5q-27 0 -42 -20.5t-26 -96.5t-11 -215z" />
<glyph unicode="&#xf3;" horiz-adv-x="718" d="M31 514q0 530 340 530q172 0 245.5 -111.5t73.5 -410.5q0 -289 -83 -415.5t-253 -126.5q-121 0 -185.5 36.5t-101 154.5t-36.5 343zM252 1270q49 68 148.5 154.5t119.5 86.5q35 0 64.5 -52t40.5 -116q-37 -41 -152 -119.5t-133 -78.5q-55 0 -86 121zM283 516 q0 -154 9 -231.5t24.5 -96t43.5 -18.5q23 0 38.5 18.5t27.5 99.5t12 228q0 213 -14 272.5t-62 59.5q-27 0 -42 -20.5t-26 -96.5t-11 -215z" />
<glyph unicode="&#xf4;" horiz-adv-x="718" d="M31 514q0 530 340 530q172 0 245.5 -111.5t73.5 -410.5q0 -289 -83 -415.5t-253 -126.5q-121 0 -185.5 36.5t-101 154.5t-36.5 343zM92 1208l234 275q23 6 45 6q37 0 63 -29q201 -205 201 -258q0 -55 -158 -55q-68 61 -108 139q-78 -137 -127 -137q-111 0 -150 59z M283 516q0 -154 9 -231.5t24.5 -96t43.5 -18.5q23 0 38.5 18.5t27.5 99.5t12 228q0 213 -14 272.5t-62 59.5q-27 0 -42 -20.5t-26 -96.5t-11 -215z" />
<glyph unicode="&#xf5;" horiz-adv-x="718" d="M31 514q0 530 340 530q172 0 245.5 -111.5t73.5 -410.5q0 -289 -83 -415.5t-253 -126.5q-121 0 -185.5 36.5t-101 154.5t-36.5 343zM53 1278q49 84 122 127t134 43q43 0 87 -44t81 -44q51 0 80 31.5t43 31.5q18 0 36.5 -31.5t27.5 -64.5l10 -31q-12 -16 -35 -41.5 t-86.5 -68.5t-120.5 -43q-55 0 -90 43t-72 43t-67.5 -32t-42.5 -32q-27 0 -53.5 28t-40.5 56zM283 516q0 -154 9 -231.5t24.5 -96t43.5 -18.5q23 0 38.5 18.5t27.5 99.5t12 228q0 213 -14 272.5t-62 59.5q-27 0 -42 -20.5t-26 -96.5t-11 -215z" />
<glyph unicode="&#xf6;" horiz-adv-x="718" d="M31 514q0 530 340 530q172 0 245.5 -111.5t73.5 -410.5q0 -289 -83 -415.5t-253 -126.5q-121 0 -185.5 36.5t-101 154.5t-36.5 343zM98 1284q0 53 34 90t91 37q125 0 125 -127q0 -53 -33.5 -89t-91.5 -36q-70 0 -97.5 31t-27.5 94zM283 516q0 -154 9 -231.5t24.5 -96 t43.5 -18.5q23 0 38.5 18.5t27.5 99.5t12 228q0 213 -14 272.5t-62 59.5q-27 0 -42 -20.5t-26 -96.5t-11 -215zM395 1284q0 53 34 90t89 37q125 0 125 -127q0 -53 -34 -89t-91 -36q-70 0 -96.5 31t-26.5 94z" />
<glyph unicode="&#xf7;" d="M51 479q0 117 6 157t35 40h676q0 -117 -6 -157t-35 -40h-676zM285 248q0 55 33.5 92t91.5 37q127 0 127 -129q0 -53 -35 -90t-92 -37q-70 0 -97.5 32t-27.5 95zM285 897q0 55 33.5 92t91.5 37q127 0 127 -129q0 -53 -35 -90t-92 -37q-70 0 -97.5 32t-27.5 95z" />
<glyph unicode="&#xf8;" horiz-adv-x="815" d="M6 31q0 12 94 184q-23 100 -22 299q0 530 340 530q147 0 219 -79q51 86 68 104q127 -37 126 -90q0 -31 -108 -229q14 -111 14 -228q0 -289 -83 -415.5t-253 -126.5q-145 0 -215 59l-57 -100q-41 6 -82 33.5t-41 58.5zM330 506l143 272q-8 41 -22.5 55.5t-41 14.5 t-42 -20.5t-26.5 -96.5t-11 -215v-10zM342 252q8 -51 23.5 -66.5t42.5 -15.5q23 0 38 18.5t27 99.5t12 228z" />
<glyph unicode="&#xf9;" horiz-adv-x="739" d="M59 287v696q0 29 19 33q25 8 219 8v-752q0 -51 13.5 -73.5t54.5 -22.5q49 0 77 27v780v2q0 29 29 34t201 5v-967q-131 -78 -303 -77q-174 0 -242 75.5t-68 231.5zM123 1337q10 63 40 115.5t64 52.5q20 0 119.5 -87t149.5 -154q-4 -14 -10.5 -35t-29 -55.5t-48.5 -34.5 q-18 0 -133 78.5t-152 119.5z" />
<glyph unicode="&#xfa;" horiz-adv-x="739" d="M59 287v696q0 29 19 33q25 8 219 8v-752q0 -51 13.5 -73.5t54.5 -22.5q49 0 77 27v780v2q0 29 29 34t201 5v-967q-131 -78 -303 -77q-174 0 -242 75.5t-68 231.5zM258 1270q49 68 148.5 154.5t119.5 86.5q35 0 65 -52t40 -116q-37 -41 -151.5 -119.5t-133.5 -78.5 q-55 0 -86 121z" />
<glyph unicode="&#xfb;" horiz-adv-x="739" d="M59 287v696q0 29 19 33q25 8 219 8v-752q0 -51 13.5 -73.5t54.5 -22.5q49 0 77 27v780v2q0 29 29 34t201 5v-967q-131 -78 -303 -77q-174 0 -242 75.5t-68 231.5zM98 1208l234 275q20 6 45 6q37 0 63 -29q201 -205 201 -258q0 -55 -158 -55q-68 61 -108 139 q-78 -137 -127 -137q-111 0 -150 59z" />
<glyph unicode="&#xfc;" horiz-adv-x="739" d="M59 287v696q0 29 19 33q25 8 219 8v-752q0 -51 13.5 -73.5t54.5 -22.5q49 0 77 27v780v2q0 29 29 34t201 5v-967q-131 -78 -303 -77q-174 0 -242 75.5t-68 231.5zM104 1284q0 53 34 90t91 37q125 0 125 -127q0 -53 -33.5 -89t-91.5 -36q-70 0 -97.5 31t-27.5 94z M401 1284q0 53 34 90t89 37q125 0 125 -127q0 -53 -33.5 -89t-91.5 -36q-70 0 -96.5 31t-26.5 94z" />
<glyph unicode="&#xfd;" horiz-adv-x="696" d="M-23 -293q0 78 29 125q47 -35 139 -35q84 0 103 170l-223 998q-10 45 17.5 52t207.5 7l59 -354q12 -74 23.5 -167t19.5 -167t8 -76q37 362 43 410l39 291q6 47 38 55t206 8l-229 -1071q-43 -201 -104.5 -274.5t-186.5 -73.5q-189 0 -189 102zM246 1270q49 68 148.5 154.5 t119.5 86.5q35 0 64.5 -52t39.5 -116q-37 -41 -151.5 -119.5t-132.5 -78.5q-55 0 -86 121z" />
<glyph unicode="&#xfe;" horiz-adv-x="745" d="M68 -309v1714q0 72 39.5 86t189.5 14v-467q49 4 74 4q162 0 245.5 -89t83.5 -324q0 -649 -268 -649q-88 0 -135 38v-409q-51 -18 -137 -19q-59 0 -75.5 20t-16.5 81zM297 209q14 -37 57 -37q25 0 42.5 26.5t31.5 130t14 285.5q0 106 -10 156.5t-25.5 63t-52.5 12.5 q-31 0 -57 -31v-606z" />
<glyph unicode="&#xff;" horiz-adv-x="696" d="M-23 -293q0 78 29 125q47 -35 139 -35q84 0 103 170l-223 998q-10 45 17.5 52t207.5 7l59 -354q12 -74 23.5 -167t19.5 -167t8 -76q37 362 43 410l39 291q6 47 38 55t206 8l-229 -1071q-43 -201 -104.5 -274.5t-186.5 -73.5q-189 0 -189 102zM92 1284q0 53 34 90t91 37 q125 0 125 -127q0 -53 -34 -89t-91 -36q-70 0 -97.5 31t-27.5 94zM389 1284q0 53 34 90t89 37q125 0 125 -127q0 -53 -34 -89t-91 -36q-70 0 -96.5 31t-26.5 94z" />
<glyph unicode="&#x152;" horiz-adv-x="1122" d="M31 721q0 401 91 566t294 165q119 0 194 -51q10 33 41 33h451q0 -143 -5 -174t-36 -31h-262v-348h248q0 -139 -5.5 -174t-33.5 -35h-209v-467h288q0 -147 -5 -176t-35 -29h-437v45q-82 -61 -211 -61q-139 0 -216 61t-114.5 221t-37.5 455zM293 674q0 -260 22.5 -363.5 t96.5 -103.5q72 0 97.5 116.5t25.5 401.5q0 293 -21.5 401.5t-99.5 108.5q-70 0 -95.5 -126t-25.5 -435z" />
<glyph unicode="&#x153;" horiz-adv-x="1120" d="M29 514q0 528 340 528q147 0 215 -73q78 76 231 75q262 0 262 -333q0 -178 -28 -291q-129 -27 -357 -31q4 -119 26.5 -152.5t84.5 -33.5q123 0 241 57q18 -61 19 -203q0 -27 -88 -52t-203 -25q-145 0 -215 67q-76 -68 -205 -67q-121 0 -185.5 36.5t-101 154.5t-36.5 343z M281 516q0 -154 9 -231.5t24.5 -96t43.5 -18.5q23 0 38.5 18.5t27.5 99.5t12 228q0 213 -14 271.5t-62 58.5q-27 0 -42 -20.5t-26 -96.5t-11 -213zM692 569q113 0 152 19q10 31 10 106q0 94 -14.5 123t-55.5 29q-47 0 -67.5 -66t-24.5 -211z" />
<glyph unicode="&#x178;" horiz-adv-x="753" d="M12 1399q-6 23 15 28q27 6 247 7l60 -269q37 -160 57 -393q16 193 60 395l49 226q8 31 38.5 36t206.5 5l-247 -832v-561v-2q0 -29 -29 -34t-201 -5v586zM123 1694q0 53 33.5 90t91.5 37q125 0 125 -127q0 -53 -34 -89t-91 -36q-70 0 -97.5 31t-27.5 94zM420 1694 q0 53 33.5 90t89.5 37q125 0 125 -127q0 -53 -34 -89t-91 -36q-70 0 -96.5 31t-26.5 94z" />
<glyph unicode="&#x2c6;" horiz-adv-x="542" d="M0 1208l233 275q20 6 46 6q37 0 63 -29q201 -205 201 -258q0 -55 -158 -55q-68 61 -109 139q-78 -137 -126 -137q-111 0 -150 59z" />
<glyph unicode="&#x2dc;" horiz-adv-x="620" d="M0 1278q49 84 122 127t134 43q43 0 87 -44t81 -44q51 0 79.5 31.5t43.5 31.5q18 0 36.5 -31.5t26.5 -64.5l11 -31q-12 -16 -35 -41.5t-86.5 -68.5t-120.5 -43q-55 0 -90 43t-72 43t-67.5 -32t-43.5 -32q-27 0 -53 28t-41 56z" />
<glyph unicode="&#x2000;" horiz-adv-x="980" />
<glyph unicode="&#x2001;" horiz-adv-x="1961" />
<glyph unicode="&#x2002;" horiz-adv-x="980" />
<glyph unicode="&#x2003;" horiz-adv-x="1961" />
<glyph unicode="&#x2004;" horiz-adv-x="653" />
<glyph unicode="&#x2005;" horiz-adv-x="489" />
<glyph unicode="&#x2006;" horiz-adv-x="325" />
<glyph unicode="&#x2007;" horiz-adv-x="325" />
<glyph unicode="&#x2008;" horiz-adv-x="243" />
<glyph unicode="&#x2009;" horiz-adv-x="391" />
<glyph unicode="&#x200a;" horiz-adv-x="108" />
<glyph unicode="&#x2010;" horiz-adv-x="540" d="M61 479q0 117 6.5 157t34.5 40h377q0 -117 -6 -157t-35 -40h-377z" />
<glyph unicode="&#x2011;" horiz-adv-x="540" d="M61 479q0 117 6.5 157t34.5 40h377q0 -117 -6 -157t-35 -40h-377z" />
<glyph unicode="&#x2012;" horiz-adv-x="540" d="M61 479q0 117 6.5 157t34.5 40h377q0 -117 -6 -157t-35 -40h-377z" />
<glyph unicode="&#x2013;" horiz-adv-x="839" d="M61 479q0 117 6.5 157t34.5 40h676q0 -117 -6 -157t-35 -40h-676z" />
<glyph unicode="&#x2014;" horiz-adv-x="1433" d="M12 479q0 117 6.5 157t34.5 40h1368q0 -117 -6 -157t-35 -40h-1368z" />
<glyph unicode="&#x2018;" horiz-adv-x="395" d="M59 1317q0 115 73 217t116 102q72 0 86 -59q-43 -72 -55 -154q57 -35 57 -123q0 -55 -38 -94t-93 -39q-146 0 -146 150z" />
<glyph unicode="&#x2019;" horiz-adv-x="395" d="M59 1505q0 55 38 94t93 39q145 0 146 -149q0 -115 -73 -217.5t-116 -102.5q-72 0 -86 60q43 72 56 153q-58 35 -58 123z" />
<glyph unicode="&#x201a;" horiz-adv-x="382" d="M59 98q0 55 38 94t93 39q145 0 146 -149q0 -115 -73 -217.5t-116 -102.5q-72 0 -86 60q43 72 56 153q-58 35 -58 123z" />
<glyph unicode="&#x201c;" horiz-adv-x="731" d="M59 1317q0 115 73 217t116 102q72 0 86 -59q-43 -72 -55 -154q57 -35 57 -123q0 -55 -38 -94t-93 -39q-146 0 -146 150zM395 1317q0 115 73 217t116 102q72 0 86 -59q-43 -72 -56 -154q57 -35 58 -123q0 -55 -38 -94t-93 -39q-146 0 -146 150z" />
<glyph unicode="&#x201d;" horiz-adv-x="731" d="M59 1505q0 55 38 94t93 39q145 0 146 -149q0 -115 -73 -217.5t-116 -102.5q-72 0 -86 60q43 72 56 153q-58 35 -58 123zM395 1505q0 55 38 94t93 39q145 0 146 -149q0 -115 -73 -217.5t-116 -102.5q-72 0 -86 60q43 72 56 153q-58 35 -58 123z" />
<glyph unicode="&#x201e;" horiz-adv-x="720" d="M59 98q0 55 38 94t93 39q145 0 146 -149q0 -115 -73 -217.5t-116 -102.5q-72 0 -86 60q43 72 56 153q-58 35 -58 123zM395 98q0 55 38 94t93 39q145 0 146 -149q0 -115 -73 -217.5t-116 -102.5q-72 0 -86 60q43 72 56 153q-58 35 -58 123z" />
<glyph unicode="&#x2022;" horiz-adv-x="481" d="M59 586q0 78 49.5 133t133.5 55q100 0 141 -48t41 -140q0 -78 -49 -130.5t-133 -52.5q-100 0 -141.5 45.5t-41.5 137.5z" />
<glyph unicode="&#x2026;" horiz-adv-x="1150" d="M53 131q0 63 39 106.5t107 43.5q145 0 145 -150q0 -61 -39 -103t-106 -42q-80 0 -113 35.5t-33 109.5zM432 131q0 63 39 106.5t107 43.5q145 0 145 -150q0 -61 -39 -103t-106 -42q-80 0 -113 35.5t-33 109.5zM811 131q0 63 39 106.5t106 43.5q145 0 146 -150 q0 -61 -39 -103t-107 -42q-80 0 -112.5 35.5t-32.5 109.5z" />
<glyph unicode="&#x202f;" horiz-adv-x="391" />
<glyph unicode="&#x2039;" horiz-adv-x="481" d="M12 512q0 41 73 169t144 237l74 106q39 0 73 -28.5t48 -57.5l14 -31q0 -47 -53 -145t-106 -174l-54 -76q25 -31 61 -79t95 -151.5t59 -152.5q-6 -14 -16 -35.5t-46 -57.5t-75 -36q-291 418 -291 512z" />
<glyph unicode="&#x203a;" horiz-adv-x="481" d="M41 129q0 102 207 373l8 10q-25 33 -59.5 84t-94 157.5t-59.5 153.5q0 35 34 64.5t66 40.5l35 12q291 -422 291 -512q0 -41 -72.5 -169t-146.5 -237l-72 -106q-16 4 -38.5 12t-60.5 42t-38 75z" />
<glyph unicode="&#x205f;" horiz-adv-x="489" />
<glyph unicode="&#x20ac;" d="M20 377q0 109 15.5 148.5t68.5 39.5h84v4q0 16 1 48t1 47h-170q0 109 15.5 148.5t68.5 39.5h107q74 391 381 391q209 0 209 -88q0 -102 -33 -151q-43 31 -119 30q-129 0 -184 -182h240q0 -109 -15.5 -148.5t-68.5 -39.5h-185q-2 -25 -2 -80v-19h213q0 -109 -15.5 -148.5 t-68.5 -39.5h-121q12 -104 43 -138t99 -34q104 0 159 26q29 -61 29 -141q0 -41 -66.5 -74.5t-168.5 -33.5q-162 0 -242 81.5t-100 313.5h-175z" />
<glyph unicode="&#x2122;" horiz-adv-x="968" d="M49 1337v78l19 19h358v-78l-18 -19h-113v-538q0 -14 -12.5 -16.5t-92.5 -2.5v557h-141zM479 780v635q0 18 21 19h78l73 -230q23 -68 27 -92q0 23 22 90l64 213q6 18 18 19h86v-635q0 -14 -13 -16.5t-93 -2.5l4 221q2 49 8 108.5t12 94.5l7 33h-2q-35 -137 -48 -170 l-43 -125q-4 -6 -10 -6h-43l-45 131q-8 25 -45 170h-2q25 -125 27 -233l2 -205q0 -14 -14.5 -16.5t-90.5 -2.5z" />
<glyph unicode="&#xe000;" horiz-adv-x="1025" d="M0 1025h1025v-1025h-1025v1025z" />
<glyph unicode="&#xfb01;" horiz-adv-x="837" d="M20 834q0 137 7.5 163.5t48.5 26.5h67v117q0 115 33 191.5t93.5 113.5t124 51t145.5 14q268 0 268 -129q0 -72 -23 -133q-98 57 -235 58q-92 0 -134 -31t-42 -127v-125h106q0 -133 -7 -161.5t-36 -28.5h-63v-793q0 -41 -41 -41h-189v834h-123zM539 0v924q0 72 39.5 86 t193.5 14v-983q0 -31 -29.5 -36t-203.5 -5z" />
<glyph unicode="&#xfb02;" horiz-adv-x="858" d="M20 834q0 137 7.5 163.5t48.5 26.5h67v117q0 113 32 190.5t87 114.5t107.5 51t113.5 14q176 0 308 -86v-1384q0 -41 -41 -41h-189v1319q-31 8 -61 8q-127 0 -127 -141v-162h119q0 -133 -7.5 -161.5t-35.5 -28.5h-76v-793q0 -41 -41 -41h-189v834h-123z" />
<glyph unicode="&#xfb03;" horiz-adv-x="1216" d="M10 834q0 137 7.5 163.5t48.5 26.5h67v131q0 348 324 348q109 0 200 -51q90 59 261 59q268 0 268 -129q0 -72 -23 -133q-98 57 -235 58q-92 0 -134 -31t-42 -127v-125h106q0 -133 -7 -161.5t-36 -28.5h-63v-793q0 -41 -41 -41h-189v834h-160v-793q0 -41 -40 -41h-189v834 h-123zM362 1024h160v117q0 86 21 157q-41 12 -76 13q-104 0 -105 -125v-162zM918 0v924q0 72 40.5 86t192.5 14v-983q0 -31 -29.5 -36t-203.5 -5z" />
<glyph unicode="&#xfb04;" horiz-adv-x="1239" d="M10 834q0 137 7.5 163.5t48.5 26.5h67v131q0 348 324 348q104 0 196 -49q82 59 209 59q174 0 309 -83l-2 -3h2v-1386q0 -31 -28.5 -36t-200.5 -5v1300q-37 8 -61 9q-129 0 -129 -135v-150h104q0 -133 -7 -161.5t-36 -28.5h-61v-793q0 -41 -41 -41h-189v834h-160v-793 q0 -41 -40 -41h-189v834h-123zM362 1024h160v117q0 94 21 157q-41 12 -76 13q-104 0 -105 -125v-162z" />
</font>
</defs>
</svg>
