<?xml version="1.0" standalone="no"?>
<!DOCTYPE svg PUBLIC "-//W3C//DTD SVG 1.1//EN" "http://www.w3.org/Graphics/SVG/1.1/DTD/svg11.dtd" >
<svg xmlns="http://www.w3.org/2000/svg">
<metadata>
This is a custom SVG webfont generated by Font Squirrel.
Copyright   : Copyright c 2010 Yanone httpyanonedetypedesign All rights reservedThis Font Software is licensed under the SIL Open Font License Version 11This license is available with a FAQ at httpscriptssilorgOFL
Designer    : Yanone
Foundry     : Yanone
Foundry URL : httpyanonedetypedesign
</metadata>
<defs>
<font id="YanoneKaffeesatzLight" horiz-adv-x="884" >
<font-face units-per-em="2048" ascent="1638" descent="-410" />
<missing-glyph horiz-adv-x="352" />
<glyph unicode=" "  horiz-adv-x="352" />
<glyph unicode="&#x09;" horiz-adv-x="352" />
<glyph unicode="&#xa0;" horiz-adv-x="352" />
<glyph unicode="!" horiz-adv-x="387" d="M104 82q0 39 24 65.5t65 26.5q45 0 67.5 -25.5t22.5 -66.5t-25 -66.5t-65 -25.5q-89 0 -89 92zM125 1415q0 20 28.5 26.5t116.5 6.5l-18 -1006q-2 -33 -24.5 -42t-88.5 -9z" />
<glyph unicode="&#x22;" horiz-adv-x="497" d="M72 1544q0 57 6 60q27 12 110 2q2 -80 -10 -240t-22 -168l-64 -2q-4 23 -12 148.5t-8 199.5zM307 1544q0 57 6 60q27 12 111 2q2 -80 -10.5 -240t-22.5 -168l-63 -2q-4 23 -12.5 148.5t-8.5 199.5z" />
<glyph unicode="#" d="M78 408q0 94 26 94h109l14 254h-149q0 94 26 94h127l9 147q2 18 20.5 22.5t81.5 4.5l-10 -174h231l8 147q2 18 20.5 22.5t84.5 4.5l-10 -174h143q0 -63 -4 -78.5t-25 -15.5h-118l-15 -254h162q0 -63 -4 -78.5t-25 -15.5h-137l-8 -162q-2 -18 -21.5 -22.5t-83.5 -4.5 l11 189h-232l-8 -162q-2 -18 -20.5 -22.5t-81.5 -4.5l10 189h-131zM313 502h232l14 254h-231z" />
<glyph unicode="$" d="M135 72q0 12 11.5 42.5t25.5 45.5q76 -63 227 -64q233 0 234 221q0 66 -31 121.5t-106 128.5l-230 215q-127 123 -127 236q0 102 72 165.5t201 76.5v198q0 31 22.5 41t79.5 10v-247q70 -4 124 -18.5t74.5 -28t20.5 -19.5q0 -51 -33 -82q-70 47 -213 47q-227 0 -227 -145 q0 -78 107 -180l251 -234q133 -127 134 -287q0 -287 -271 -323v-193q0 -29 -21.5 -39t-78.5 -10v236q-80 2 -139.5 18t-83 35t-23.5 33z" />
<glyph unicode="%" horiz-adv-x="1458" d="M125 1073q0 377 289 377q141 0 206.5 -82t65.5 -293q0 -379 -283 -379q-72 0 -118.5 14.5t-85.5 53.5t-56.5 114.5t-17.5 194.5zM233 1065q0 -162 40 -220.5t128 -58.5q178 0 179 289q0 164 -40 223.5t-126 59.5q-181 0 -181 -293zM256 29l862 1421q66 -18 66 -51 l-858 -1415q-70 14 -70 45zM772 360q0 377 289 377q141 0 206.5 -82t65.5 -293q0 -379 -282 -378q-72 0 -119 14t-86 53t-56.5 114.5t-17.5 194.5zM879 350q0 -162 41 -220t129 -58q178 0 178 288q0 164 -40 223.5t-126 59.5q-182 0 -182 -293z" />
<glyph unicode="&#x26;" horiz-adv-x="1050" d="M74 352q0 121 67.5 221.5t167.5 157.5q-168 281 -168 432q0 145 93.5 214t248.5 69q125 0 210 -28.5t85 -61.5q0 -49 -26 -80q-102 70 -258 70q-109 0 -171.5 -41t-62.5 -156q0 -121 148.5 -359.5t339.5 -463.5q35 111 34 249q0 154 -48 268.5t-124 174.5q80 12 215 12 q127 0 181 -4q4 -12 4 -45q0 -27 -16.5 -38t-67.5 -11l-148 2q113 -131 113 -375q0 -188 -60 -328q109 -121 173 -159q-4 -29 -27 -59.5t-45 -30.5q-33 0 -162 143q-113 -145 -321 -145q-375 -1 -375 372zM190 346q0 -109 57.5 -184.5t194.5 -75.5q160 0 250 125 q-176 201 -330 436q-172 -98 -172 -301z" />
<glyph unicode="'" horiz-adv-x="262" d="M72 1544q0 57 6 60q27 12 110 2q2 -80 -10 -240t-22 -168l-64 -2q-4 23 -12 148.5t-8 199.5z" />
<glyph unicode="(" horiz-adv-x="602" d="M141 659q0 188 35 359.5t83 281t100.5 192.5t88 120t46.5 37q43 0 61 -74q-297 -354 -299 -911q0 -346 97.5 -607.5t201.5 -380.5q-18 -82 -63 -82q-12 0 -49 42t-89.5 132.5t-99.5 210t-80 300.5t-33 380z" />
<glyph unicode=")" horiz-adv-x="602" d="M47 -324q45 57 90 136t95.5 201t82 293t31.5 358q-2 315 -92 546.5t-207 364.5q18 74 62 74q10 0 44.5 -36t87 -118t101.5 -191.5t83 -281.5t34 -363q0 -193 -33 -371.5t-80 -299.5t-98 -213t-88 -136.5t-49 -44.5q-46 0 -64 82z" />
<glyph unicode="*" horiz-adv-x="966" d="M43 1051q-2 47 27.5 78.5t54.5 19.5l287 -158q2 -27 -8.5 -39t-28.5 -4zM154 602l243 272q27 27 58 -12l-199 -319q-25 -25 -55.5 -2.5t-46.5 61.5zM424 1372q-2 27 40 30t79 -18l-31 -337q-4 -35 -55 -25zM507 870.5q7 10.5 36 20.5l229 -295q18 -25 -12.5 -51.5 t-73.5 -32.5l-178 332q-8 16 -1 26.5zM563 940q-35 45 4 66l320 151q31 -23 38 -66.5t-22 -52.5z" />
<glyph unicode="+" d="M86 526v49q0 14 3 30t8 20t16 4h280v278q0 20 19.5 24.5t83.5 4.5v-307h307q0 -63 -4 -83t-25 -20h-278v-280q0 -18 -18.5 -22.5t-84.5 -4.5v307h-307z" />
<glyph unicode="," horiz-adv-x="368" d="M92 -184q57 98 62 190q-41 25 -41 82q0 37 22.5 60.5t57.5 23.5q84 0 83 -96q0 -90 -53 -193.5t-84 -103.5q-37 0 -47 37z" />
<glyph unicode="-" horiz-adv-x="593" d="M88 526v49q0 14 3 30t8 20t16 4h391q0 -63 -4 -83t-25 -20h-389z" />
<glyph unicode="." horiz-adv-x="368" d="M100 82q0 39 23.5 65.5t62.5 26.5q90 0 90 -92q0 -39 -24.5 -65.5t-65.5 -26.5q-86 0 -86 92z" />
<glyph unicode="/" horiz-adv-x="628" d="M20 -41l463 1573q8 25 26.5 30t98.5 5l-461 -1577q-8 -23 -27.5 -27t-99.5 -4z" />
<glyph unicode="0" d="M74 606q0 311 90 467t289 156q195 0 276.5 -143.5t81.5 -452.5q0 -330 -86 -489.5t-287 -159.5q-197 0 -280.5 149t-83.5 473zM195 592q0 -270 57 -388t186 -118q137 0 196.5 134t59.5 419q0 254 -52 370.5t-183 116.5q-141 0 -202.5 -134t-61.5 -400z" />
<glyph unicode="1" d="M74 84q0 23 323 22l29 1006q-39 -2 -266 -49q-16 23 -17 82q0 12 167 49t200 37q16 0 33 -8l-25 -1117h180l113 7q0 -113 -18 -113h-717q-2 18 -2 84z" />
<glyph unicode="2" d="M74 43q0 12 1 21.5t6 20.5t9 17.5t15.5 24.5t17.5 29q57 94 157.5 210.5t175 197.5t132 186.5t57.5 201.5q0 82 -41 125t-145 43q-205 0 -326 -80q-14 37 -14 86q0 18 43 42t129 42.5t184 18.5q170 0 232.5 -64.5t62.5 -203.5q0 -111 -59.5 -225.5t-135 -199.5t-183 -209 t-169.5 -221h379l209 9q0 -115 -20 -115h-709q-8 16 -8 43z" />
<glyph unicode="3" d="M100 -115q0 41 15 88q82 -70 217 -69q152 0 244 115.5t92 293.5q0 57 -19.5 100.5t-49.5 68t-76 40t-90 20.5t-101 7l-2 76q287 160 286 342q0 154 -182 153q-197 0 -317 -82q-12 29 -13 84q0 23 40 47.5t124 42t189 17.5q285 0 284 -238q0 -199 -245 -370 q129 -12 210.5 -85t81.5 -223q0 -236 -126.5 -377t-333.5 -141q-109 0 -168.5 28.5t-59.5 61.5z" />
<glyph unicode="4" d="M78 403q0 102 155.5 394.5t298.5 421.5q20 18 54 18q25 0 61 -14l-6 -801l176 4l4 -43q0 -68 -37 -68h-143v-274q0 -31 -13.5 -36t-99.5 -5v315h-419q-31 31 -31 88zM180 422h348l19 661q-106 -117 -217 -307t-150 -354z" />
<glyph unicode="5" d="M80 -123q0 51 14 94q76 -70 221 -69q188 0 273.5 132t85.5 349q0 311 -361 311q-37 0 -76.5 -5t-63 -10t-48.5 -11t-27 -6l58 567h626q0 -68 -10 -85.5t-53 -17.5l-465 4l-39 -354q57 14 143 15q74 2 139.5 -11.5t137.5 -51.5t115 -123t43 -208q0 -602 -474 -602 q-76 0 -133 15.5t-81.5 34t-24.5 32.5z" />
<glyph unicode="6" d="M78 608q0 223 37 387t102.5 258.5t148.5 138.5t183 44q223 0 223 -62q0 -43 -10 -80q-88 35 -213 35q-154 0 -252 -154.5t-111 -463.5q102 186 320 186q141 0 225 -98.5t84 -298.5q0 -518 -389 -518q-88 0 -151.5 30.5t-101.5 80.5t-59.5 134t-28.5 171t-7 210zM186 588 q-4 -248 49.5 -375t194.5 -127q131 0 203 105.5t72 281.5q0 317 -230 318q-180 0 -289 -203z" />
<glyph unicode="7" d="M106 1229h738q-436 -717 -557 -1403q-115 0 -115 29q72 373 215 719t289 554q-82 -4 -535 -4q-35 1 -35 105z" />
<glyph unicode="8" d="M82 371q0 131 73.5 238.5t184.5 162.5q-92 53 -131 90q-113 84 -113 238q0 168 100.5 257t252.5 89q356 0 356 -330q0 -207 -246 -354q72 -45 127 -92q133 -123 133 -299q0 -178 -91 -282.5t-265 -104.5q-193 0 -287 105.5t-94 281.5zM188 377q0 -129 70 -208t199 -79 q119 0 186.5 77t67.5 204q0 141 -121 245q-47 41 -141 97q-111 -41 -186 -132t-75 -204zM207 1106q0 -123 112 -201q29 -23 140 -86q240 117 239 293q0 127 -70.5 177t-168.5 50q-109 0 -180.5 -58t-71.5 -175z" />
<glyph unicode="9" d="M74 729q0 520 389 520q209 0 276.5 -138t71.5 -486q-2 -426 -129 -631t-387 -205q-172 0 -172 49q0 47 8 76q68 -18 154 -18q383 0 415 616q-102 -186 -311 -186q-139 0 -227 103t-88 300zM184 748q0 -158 62.5 -237t173.5 -79q170 0 285 203v4q0 123 -8.5 205t-32 155.5 t-73.5 109.5t-126 36q-281 0 -281 -397z" />
<glyph unicode=":" horiz-adv-x="368" d="M100 82q0 39 23.5 65.5t62.5 26.5q90 0 90 -92q0 -39 -24.5 -65.5t-65.5 -26.5q-86 0 -86 92zM100 791q0 39 23.5 65.5t62.5 26.5q90 0 90 -92q0 -39 -24.5 -66t-65.5 -27q-86 1 -86 93z" />
<glyph unicode=";" horiz-adv-x="368" d="M86 -184q57 94 61 190q-41 25 -41 82q0 37 23 60.5t59 23.5q84 0 84 -96q0 -90 -54 -193.5t-85 -103.5q-39 0 -47 37zM102 791q0 39 24 65.5t62 26.5q90 0 91 -92q0 -39 -25 -66t-66 -27q-86 1 -86 93z" />
<glyph unicode="&#x3c;" horiz-adv-x="819" d="M90 532q0 43 39 64l549 268q39 -37 39 -76q0 -27 -21 -34l-458 -226l487 -213q-2 -39 -18.5 -64.5t-34.5 -25.5q-8 0 -47 15l-514 225q-21 28 -21 67z" />
<glyph unicode="=" d="M86 348v49q0 14 3 29.5t8 20t16 4.5h690q0 -66 -4 -84.5t-25 -18.5h-688zM86 705v49q0 14 3 29.5t8 19.5t16 4h690q0 -66 -4 -84t-25 -18h-688z" />
<glyph unicode="&#x3e;" horiz-adv-x="819" d="M98 762q0 37 16.5 63.5t35.5 26.5q10 0 49 -14l514 -226q18 -31 18 -67q0 -45 -39 -64l-549 -270q-39 39 -39 76q0 29 21 37l459 225z" />
<glyph unicode="?" horiz-adv-x="604" d="M51 1370q0 29 76 56.5t166 27.5q125 0 206 -68.5t81 -222.5q0 -82 -29 -159.5t-63.5 -126t-82 -109.5t-65.5 -96q-39 -61 -39 -140q0 -27 5 -56.5t8 -39.5t-1 -20q-18 -23 -102 -13q-23 51 -23 125q0 94 48 179q25 45 89 130t99 155.5t35 152.5q0 197 -197 196 q-119 0 -196 -61q-15 35 -15 90zM178 82q0 39 23.5 65.5t62.5 26.5q90 0 90 -92q0 -39 -24.5 -65.5t-65.5 -26.5q-86 0 -86 92z" />
<glyph unicode="@" horiz-adv-x="1544" d="M109 541q0 449 190 655.5t528 206.5q313 0 463 -160t150 -518q0 -193 -27 -334t-62.5 -213t-86 -113.5t-84 -51t-68.5 -9.5q-78 0 -129 51q-78 -53 -227 -53q-127 -2 -194.5 60.5t-63.5 248.5q4 182 86 255t221 73q82 0 125 -16q2 76 4 129q2 92 -39 125.5t-125 33.5 q-133 0 -219 -49q-12 25 -12 64q0 23 18 35q76 49 250 49q121 0 178 -55.5t53 -186.5l-12 -440q-8 -170 -10 -199q41 -25 86 -25q23 0 48.5 12.5t58 52.5t58 102.5t43 175t17.5 258.5q0 322 -113.5 458.5t-388.5 136.5q-297 0 -450.5 -177t-153.5 -595q0 -207 27.5 -355 t73 -235.5t121 -136.5t153.5 -64.5t188 -15.5q258 0 480 107q31 -51 30 -86q0 -23 -58 -51.5t-179 -53t-262 -24.5q-92 0 -158 6t-142.5 28.5t-129 61.5t-104.5 107.5t-83 166t-50 238t-19 320.5zM604 307q-4 -129 38 -173t126 -44q55 0 100 24.5t47 65.5l13 367 q-45 10 -101 10q-104 0 -162.5 -55.5t-60.5 -194.5z" />
<glyph unicode="A" horiz-adv-x="892" d="M14 2l387 1421q4 18 39 19q31 0 49 -6l388 -1409q1 -5 1 -9q0 -10 -8 -14q-10 -6 -41 -6q-39 0 -67 2l-103 395h-426l-94 -372q-4 -25 -55 -25q-41 0 -70 4zM260 500h371l-99 379q-78 303 -86 401q-14 -127 -88 -401z" />
<glyph unicode="B" horiz-adv-x="802" d="M113 0v1399q0 35 51 35h205q342 0 342 -312q0 -162 -61.5 -240.5t-139.5 -90.5q39 -2 76 -15.5t78 -43.5t66.5 -92t25.5 -151q0 -117 -27 -206.5t-66.5 -142t-95 -85t-104.5 -44t-101 -11.5h-249zM225 102h137q115 0 190 88.5t75 288.5q0 86 -18.5 138.5t-59.5 76 t-81 30.5t-106 7h-137v-629zM225 829h154q211 0 211 273q0 231 -219 231h-146v-504z" />
<glyph unicode="C" horiz-adv-x="722" d="M80 649q0 207 24.5 359.5t61.5 236.5t93 133t105.5 63.5t112.5 14.5q92 0 141.5 -32.5t49.5 -69.5t-21 -70q-72 63 -153 64q-49 0 -87 -13.5t-79 -56.5t-69 -117t-45 -205t-17 -309q0 -168 19.5 -281.5t56 -169t75.5 -76t92 -20.5q66 0 125.5 28t87.5 62q20 -37 21 -71 q0 -51 -75 -96.5t-179 -45.5q-59 0 -100 10.5t-90.5 49.5t-79 108.5t-50 197.5t-20.5 306z" />
<glyph unicode="D" horiz-adv-x="847" d="M115 0v1399q0 35 51 35h205q203 0 300 -147.5t97 -493.5q0 -233 -29.5 -394t-87 -245t-126 -119t-163.5 -35h-247zM227 109h138q47 0 83.5 13t75.5 56t63.5 117t41 202t16.5 304q0 287 -65.5 407.5t-210.5 120.5h-142v-1220z" />
<glyph unicode="E" horiz-adv-x="690" d="M117 0v1405q0 29 26 29h490q0 -104 -21 -105h-385v-493h361q0 -70 -3 -87.5t-22 -17.5h-336v-627h404q0 -74 -3 -89t-22 -15h-489z" />
<glyph unicode="F" horiz-adv-x="669" d="M117 0v1405q0 29 26 29h490q0 -100 -21 -101h-385v-495h361q0 -72 -3 -89.5t-22 -17.5h-336v-704q2 -27 -24 -27h-86z" />
<glyph unicode="G" horiz-adv-x="817" d="M74 694q0 229 29.5 383t90 234t134 111.5t178.5 31.5q92 0 153.5 -28.5t61.5 -65.5q0 -33 -16 -70q-72 55 -179 56q-113 0 -182.5 -52.5t-110 -198t-40.5 -395.5q0 -197 19 -323.5t58 -186t82 -80t108.5 -20.5t110.5 25.5t58 52.5v551h-201v69q0 27 31 27h276v-721 q-109 -115 -278 -114q-78 0 -133.5 16t-105.5 62t-79.5 126t-47 207t-17.5 303z" />
<glyph unicode="H" d="M113 0v1405q0 20 14 24.5t98 4.5v-600h434v571q0 20 14.5 24.5t98.5 4.5v-1407q0 -20 -14.5 -23.5t-98.5 -3.5v727h-434v-700q0 -20 -14 -23.5t-98 -3.5z" />
<glyph unicode="I" horiz-adv-x="337" d="M111 0v1376q0 43 15 50.5t99 7.5v-1407q0 -20 -14 -23.5t-100 -3.5z" />
<glyph unicode="J" horiz-adv-x="618" d="M43 88q0 37 20 70q70 -74 173 -74q53 0 85.5 20.5t48 66.5t19.5 89t4 117v1001q0 41 14.5 48.5t98.5 7.5v-1090q0 -61 -5 -108.5t-20.5 -97.5t-43 -82.5t-76 -54t-113.5 -21.5q-98 0 -151.5 32.5t-53.5 75.5z" />
<glyph unicode="K" horiz-adv-x="804" d="M111 0v1405q0 20 14 24.5t98 4.5v-625l412 618q27 6 72 7q50 0 49 -21q0 -8 -6 -18l-412 -586q274 -176 416 -776q1 -6 1 -12q0 -11 -6 -16q-9 -7 -38 -7q-49 0 -74 2q-82 279 -153.5 430.5t-159.5 239.5q-35 35 -101 65v-708q0 -20 -14 -23.5t-98 -3.5z" />
<glyph unicode="L" horiz-adv-x="673" d="M113 0v1393q0 31 14 36t100 5v-1328h406v-79q0 -27 -29 -27h-491z" />
<glyph unicode="M" horiz-adv-x="1019" d="M113 0v1405q0 29 26 29h76l223 -719l72 -246q57 197 70 240l215 696q10 29 28 29h86v-1407q0 -20 -14 -23.5t-100 -3.5l4 592l18 577l-153 -512l-119 -348q-6 -18 -23 -18h-53l-115 366q-4 10 -30.5 97.5t-64.5 213.5t-58 193q18 -430 20 -555l2 -579q0 -20 -15 -23.5 t-95 -3.5z" />
<glyph unicode="N" horiz-adv-x="933" d="M113 0v1405q0 29 26 29h80l246 -566q39 -109 254 -647q-10 154 -10 699v485q0 20 14 24.5t98 4.5v-1407q0 -27 -26 -27h-78l-252 575q-57 135 -250 642q8 -303 8 -689v-501q0 -20 -13 -23.5t-97 -3.5z" />
<glyph unicode="O" horiz-adv-x="913" d="M78 727q0 391 95 559t298 168q201 0 283 -159.5t82 -565.5q0 -410 -91.5 -579.5t-295.5 -169.5q-203 0 -287 161.5t-84 585.5zM203 692q0 -326 56 -461t194 -135q141 0 201.5 144.5t60.5 490.5q0 338 -55.5 473t-192.5 135t-200.5 -148.5t-63.5 -498.5z" />
<glyph unicode="P" horiz-adv-x="757" d="M113 0v1405q0 29 26 29h213q358 0 359 -390q0 -223 -98.5 -330.5t-268.5 -107.5h-121v-579q0 -20 -13 -23.5t-97 -3.5zM223 713h129q236 0 236 340q0 279 -226 278h-139v-618z" />
<glyph unicode="Q" horiz-adv-x="913" d="M78 727q0 391 95 559t298 168q201 0 283 -159.5t82 -565.5q0 -356 -69 -529t-218 -208q16 -94 45 -132t80 -38q76 0 133 35q18 -25 18 -62q0 -33 -54 -51t-118 -18q-92 0 -146 59t-85 195q-125 6 -198.5 75.5t-109.5 230t-36 441.5zM203 692q0 -326 56 -461t194 -135 q141 0 201.5 144.5t60.5 490.5q0 338 -55.5 473t-192.5 135t-200.5 -148.5t-63.5 -498.5z" />
<glyph unicode="R" horiz-adv-x="776" d="M113 0v1405q0 29 26 29h213q358 0 359 -390q0 -324 -211 -411q174 -227 207 -602q2 -18 -8.5 -24.5t-47.5 -8.5q-37 0 -63 2q-43 410 -199 608q-14 -2 -45 -2h-121v-579q0 -20 -13 -23.5t-97 -3.5zM223 713h129q236 0 236 336q0 283 -226 282h-139v-618z" />
<glyph unicode="S" horiz-adv-x="755" d="M68 88q0 47 32 80q78 -74 230 -74q246 0 245 250q0 86 -31.5 155.5t-111.5 155.5l-221 232q-139 156 -139 291q0 123 91 199.5t253 76.5q127 0 192.5 -26.5t65.5 -63.5t-31 -68q-74 55 -219 56q-106 0 -170 -47.5t-64 -124.5q0 -94 113 -222l244 -251q84 -90 115.5 -169 t31.5 -184q0 -172 -86 -273t-270 -101q-129 0 -199.5 34.5t-70.5 73.5z" />
<glyph unicode="T" horiz-adv-x="751" d="M14 1327v78q0 29 27 29h696v-80q0 -27 -26 -27h-283v-1300q0 -20 -14.5 -23.5t-98.5 -3.5v1327h-301z" />
<glyph unicode="U" horiz-adv-x="937" d="M113 440v965q0 20 14 24.5t100 4.5v-998q0 -66 4.5 -111.5t19.5 -94t43 -78t75 -48t114 -18.5q143 0 230 43v1278q0 20 15 23.5t99 3.5v-1383q-43 -29 -140 -50t-204 -21q-98 0 -167.5 25.5t-108.5 64.5t-60.5 103.5t-27.5 123.5t-6 143z" />
<glyph unicode="V" horiz-adv-x="862" d="M12 1424q4 9 25 10h90l227 -897q33 -143 86 -435q47 285 80 435l207 856q6 41 33 41h92l-350 -1446q-74 -6 -88 -6q-43 0 -74 120l-326 1293q-4 12 -3 20q-1 5 1 9z" />
<glyph unicode="W" horiz-adv-x="1316" d="M12 1395q-1 6 -1 12q0 27 26 27h90l188 -899q33 -180 62 -398h8q12 162 55 398l158 784q6 39 33 39h80l180 -823q16 -76 26.5 -140.5t20.5 -142.5t14 -113h9q29 256 55 396l168 858q6 41 33 41h92l-289 -1446q-49 -6 -88 -6q-37 0 -62 104l-153 664q-16 70 -62 389 l-57 -387l-160 -764q-53 -4 -94 -4q-35 0 -61 122z" />
<glyph unicode="X" horiz-adv-x="872" d="M20 0l345 743l-289 670q-6 16 12 19q16 2 117 2l104 -248q74 -172 137 -346q51 133 142 346l98 227q6 16 20.5 18.5t106.5 2.5l-297 -691l332 -720q3 -6 3 -11q0 -12 -20 -12h-116l-140 307q-37 82 -143 338q-72 -178 -145 -336l-140 -295q-8 -14 -28 -14h-99z" />
<glyph unicode="Y" horiz-adv-x="739" d="M12 1415q-4 14 13 17q16 2 114 2l99 -293q39 -106 86 -262t53 -193q16 109 139 457l90 270q4 14 20.5 17.5t102.5 3.5l-299 -848v-559q0 -20 -13.5 -23.5t-99.5 -3.5v582z" />
<glyph unicode="Z" horiz-adv-x="804" d="M47 45q0 29 10 55l564 1231h-435q-63 0 -84 -4v78q0 29 29 29h610q12 -16 13 -39q0 -27 -13 -58l-569 -1235h461q76 0 108 13v-88q0 -27 -26 -27h-649q-19 14 -19 45z" />
<glyph unicode="[" horiz-adv-x="849" d="M305 -406v2046q0 27 14.5 34t73.5 7h436q0 -70 -7 -86t-40 -16h-364v-1878h409q0 -74 -9 -90.5t-40 -16.5h-473z" />
<glyph unicode="\" horiz-adv-x="620" d="M23 1532q-6 25 11 30t97 5l467 -1598q6 -23 -11.5 -26.5t-97.5 -3.5z" />
<glyph unicode="]" horiz-adv-x="849" d="M20 -410q0 70 7.5 86.5t40.5 16.5h364v1884h-409q0 74 9 90t40 16h473v-2052q0 -27 -15.5 -34t-74.5 -7h-435z" />
<glyph unicode="^" horiz-adv-x="880" d="M117 494l329 299l291 -267q20 -18 21 -37q0 -23 -16.5 -39t-41.5 -18l-264 215l-221 -190q-31 -23 -45 -23q-23 0 -37 17.5t-16 42.5z" />
<glyph unicode="_" horiz-adv-x="784" d="M33 -193q0 66 4 84.5t24 18.5h689v-49q0 -14 -3.5 -29.5t-8.5 -20t-15 -4.5h-690z" />
<glyph unicode="`" horiz-adv-x="331" d="M0 1411q4 27 19.5 57.5t33.5 30.5q6 0 134 -108.5t145 -130.5q-23 -66 -43 -66q-6 0 -140.5 101.5t-148.5 115.5z" />
<glyph unicode="a" horiz-adv-x="751" d="M74 285q0 104 24.5 173.5t71.5 102.5t95 45t114 12q109 0 168 -24v180q0 94 -41 128t-121 34q-180 0 -295 -51q-16 33 -16 65q0 29 16 41q33 20 125 36.5t197 16.5q127 0 186 -56t59 -191v-123q0 -354 -10 -621q-121 -74 -278 -73q-51 0 -88 4t-79 21.5t-67.5 50t-43 90 t-17.5 139.5zM190 289q0 -70 14.5 -115t45.5 -64.5t59.5 -25.5t75.5 -6q102 0 152 45q10 143 10 387q-55 20 -133 20q-106 0 -165 -47t-59 -194z" />
<glyph unicode="b" horiz-adv-x="821" d="M119 41v1409q0 39 19.5 47t92.5 8v-544q104 84 254 83q131 -2 200 -92t69 -301q0 -172 -27 -299t-65.5 -196.5t-95 -111.5t-104.5 -53t-108 -11q-157 0 -235 61zM231 119q41 -37 138 -37q262 0 262 539q0 178 -46 248.5t-149 70.5q-125 0 -205 -80v-741z" />
<glyph unicode="c" horiz-adv-x="677" d="M82 489q0 141 23.5 246t58.5 163t86 92t97 44t104 10q72 0 122 -24.5t50 -57t-15 -67.5q-68 47 -159 47q-39 0 -70 -8t-67 -36t-59.5 -75t-39.5 -134t-16 -206q0 -236 55 -318.5t168 -82.5q119 0 188 61q14 -35 15 -65q0 -37 -68 -67.5t-166 -30.5q-76 0 -127 18 t-95 70.5t-64.5 156.5t-20.5 264z" />
<glyph unicode="d" horiz-adv-x="823" d="M84 483q0 281 95 421t245 140q104 0 168 -45v451q0 39 20.5 47t94.5 8v-1464q-119 -61 -291 -61q-78 0 -130.5 16t-102.5 64.5t-74.5 153.5t-24.5 269zM205 494q0 -174 30.5 -267.5t73.5 -118t117 -26.5q104 0 168 41l-2 780q-51 41 -135 41q-111 0 -181.5 -107 t-70.5 -343z" />
<glyph unicode="e" horiz-adv-x="768" d="M78 457q0 152 22.5 262t56 171.5t86 97.5t97.5 46t104 10q258 0 258 -323q0 -150 -20 -246q-182 -37 -489 -37q0 -143 31.5 -222t79.5 -102.5t128 -23.5q147 0 246 70q14 -37 14 -80q0 -37 -84 -68.5t-194 -31.5q-80 0 -135.5 17t-104.5 65.5t-72.5 146.5t-23.5 248z M195 532q274 0 389 29q8 66 8 137q-2 129 -36 186.5t-122 57.5q-45 0 -80 -14.5t-71.5 -53t-60 -126t-27.5 -216.5z" />
<glyph unicode="f" horiz-adv-x="507" d="M31 926q0 70 4 84t26 14h125v129q0 92 21.5 159.5t53.5 104.5t79 60.5t88 29.5t92 6q176 0 176 -63q0 -23 -12 -64q-68 25 -152 25q-49 0 -84.5 -8t-72.5 -31.5t-56.5 -78t-19.5 -136.5v-133h213q0 -70 -4 -84t-25 -14h-184v-899q0 -27 -29 -27h-84v926h-155z" />
<glyph unicode="g" horiz-adv-x="825" d="M68 -186q0 72 48 139t120 119q-66 18 -102 45.5t-34 62.5q0 78 129 180q-129 80 -129 314q0 184 93.5 277t244.5 93q43 0 92 -12h254q12 -31 13 -53q0 -45 -47 -45q-53 0 -111 12q113 -74 113 -254q0 -170 -81 -273.5t-251 -103.5q-72 0 -117 15q-86 -70 -86 -117 t297 -84q133 -18 203.5 -66.5t70.5 -158.5q0 -129 -102 -218t-295 -89q-323 0 -323 217zM182 -164q0 -66 45 -100.5t174 -34.5t201 57.5t72 130.5q0 78 -53.5 108t-176.5 42q-78 8 -114 14q-59 -41 -103.5 -101.5t-44.5 -115.5zM217 676q0 -131 43 -199.5t168 -68.5 q104 0 157.5 85t53.5 222q0 242 -205 241q-96 0 -156.5 -70.5t-60.5 -209.5z" />
<glyph unicode="h" horiz-adv-x="811" d="M111 0v1450q0 39 19.5 47t92.5 8v-549q111 88 260 88q137 0 186.5 -67.5t49.5 -206.5v-743q0 -20 -15.5 -23.5t-99.5 -3.5v745q0 94 -34.5 143.5t-129.5 49.5q-129 0 -217 -82v-829q0 -20 -14 -23.5t-98 -3.5z" />
<glyph unicode="i" horiz-adv-x="350" d="M180 1464q63 0 64 -92q-4 -96 -70 -96q-62 0 -61 88q-1 100 67 100zM117 0v969q0 39 21.5 47t94.5 8v-997q0 -20 -15 -23.5t-101 -3.5z" />
<glyph unicode="j" horiz-adv-x="372" d="M-231 -305q0 39 18 63q88 -53 197 -53q92 0 119.5 54.5t27.5 187.5v1022q0 39 19.5 47t93.5 8v-1100q0 -156 -53.5 -239.5t-198.5 -83.5q-104 0 -163.5 27.5t-59.5 66.5zM195 1464q63 0 63 -92q-4 -96 -70 -96q-62 0 -61 88q0 100 68 100z" />
<glyph unicode="k" horiz-adv-x="802" d="M117 0v1450q0 39 19.5 47t92.5 8v-585q59 59 140.5 91.5t148.5 32.5q180 0 180 -180q0 -63 -24.5 -121.5t-64.5 -98.5t-68.5 -62.5t-57.5 -38.5q82 -14 156 -92t94 -220q6 -43 6 -94t-6 -108q-4 -20 -19.5 -24.5t-107.5 -4.5q8 63 8 127q0 98 -18 162q-33 115 -106 156 q-52 30 -101 31q-19 0 -39 -5l-121 -45v-399q0 -20 -13 -23.5t-99 -3.5zM229 514q346 119 346 322q0 104 -104 104q-131 0 -242 -131v-295z" />
<glyph unicode="l" horiz-adv-x="348" d="M117 0v1450q0 39 19.5 47t92.5 8v-1478q0 -20 -14 -23.5t-98 -3.5z" />
<glyph unicode="m" horiz-adv-x="1212" d="M117 0v977q154 68 303 67q141 0 196 -73q115 74 261 73q141 0 185 -68.5t44 -227.5v-721q0 -20 -14.5 -23.5t-98.5 -3.5v754q0 106 -26.5 147t-108.5 41q-104 0 -188 -55v-860q0 -18 -11 -23h-2q-12 -4 -100 -4v801q-4 78 -30.5 110.5t-108.5 32.5q-92 0 -189 -45v-872 q0 -20 -15 -23.5t-97 -3.5z" />
<glyph unicode="n" horiz-adv-x="821" d="M113 0v973q166 72 331 71q160 0 220.5 -65.5t60.5 -214.5v-737q0 -20 -14.5 -23.5t-100.5 -3.5v733q0 117 -33.5 164t-136.5 47q-127 0 -215 -47v-870q0 -20 -14 -23.5t-98 -3.5z" />
<glyph unicode="o" horiz-adv-x="784" d="M63 510q0 535 343 534q166 0 241.5 -114.5t75.5 -417.5q0 -532 -340 -532q-82 0 -135 18t-98.5 72.5t-66 162t-20.5 277.5zM184 502q0 -172 26 -267.5t66.5 -126t110.5 -30.5q215 0 215 438q0 252 -48 340t-153 88q-106 0 -161.5 -99t-55.5 -343z" />
<glyph unicode="p" horiz-adv-x="819" d="M117 -356v1319q133 82 295 81q168 0 253 -96t85 -336q0 -160 -22.5 -278.5t-57.5 -184t-82 -105.5t-88 -52t-86 -12q-127 0 -185 73v-448q-37 -8 -59 -8q-53 0 -53 47zM229 176q55 -94 154 -94q244 6 244 508q0 205 -52.5 279.5t-168.5 74.5q-98 0 -177 -51v-717z" />
<glyph unicode="q" horiz-adv-x="835" d="M82 453q0 303 110.5 447t303.5 144q133 0 223 -63v-1337q0 -33 -12.5 -41.5t-57.5 -8.5q-8 0 -23.5 1.5t-21.5 1.5v491q-74 -109 -229 -108q-293 0 -293 473zM205 451q0 -369 209 -369h6q54 0 104 31q53 33 80 98v696q-45 37 -133 37q-266 1 -266 -493z" />
<glyph unicode="r" horiz-adv-x="563" d="M113 0v954q133 90 274 90q147 0 148 -71q0 -35 -17 -68q-53 31 -115 31q-100 0 -176 -57v-852q0 -20 -15 -23.5t-99 -3.5z" />
<glyph unicode="s" horiz-adv-x="753" d="M80 67.5q0 36.5 24 69.5q88 -53 224 -53q221 0 221 158q0 113 -115 198l-215 156q-80 55 -107.5 104.5t-27.5 110.5q0 109 89 171t245 62q88 0 151.5 -19t86 -41.5t22.5 -41.5q0 -31 -27 -63q-100 66 -223 65q-96 0 -155.5 -35t-59.5 -98q0 -76 100 -143l222 -158 q139 -115 139 -254q0 -133 -89 -204.5t-247 -71.5q-117 0 -187.5 25.5t-70.5 62z" />
<glyph unicode="t" horiz-adv-x="610" d="M55 924q0 68 4 84t23 16h125v324q0 33 18.5 39t93.5 6v-369h248q0 -68 -4 -84t-20 -16h-224v-629q0 -74 4.5 -113t26 -70.5t64.5 -31.5q61 0 133 33q8 -33 8 -60q0 -37 -48 -55t-118 -18q-61 0 -99 21.5t-55.5 69.5t-22.5 96t-5 130v627h-152z" />
<glyph unicode="u" horiz-adv-x="851" d="M119 346v649q0 23 14 26t100 3v-692q0 -145 40 -198.5t157 -53.5q111 0 188 47v868q0 20 15.5 24.5t97.5 4.5v-973q-137 -72 -311 -71.5t-237.5 83t-63.5 283.5z" />
<glyph unicode="v" horiz-adv-x="729" d="M53 987q-3 9 -2 15q0 13 10 17q16 5 107 5l88 -356q29 -109 57.5 -244t42.5 -215l17 -82h2q49 297 108 543l80 325q4 20 19.5 24.5t97.5 4.5l-262 -1036q-33 -4 -76 -4q-25 0 -51 102z" />
<glyph unicode="w" horiz-adv-x="1132" d="M49 995q-4 20 12.5 24.5t106.5 4.5l82 -373q53 -256 96 -510h6q12 74 88 445l72 375q2 29 39 28h74l88 -407q23 -94 46 -204t36 -173l10 -64h8q16 164 86 510l70 344q4 20 19.5 24.5t94.5 4.5q-227 -1036 -233 -1036q-33 -4 -70 -4q-14 0 -31.5 30.5t-29.5 81.5l-33 142 q-74 301 -119 571q-57 -350 -110 -573l-56 -248q-59 -4 -87.5 -4t-49.5 100z" />
<glyph unicode="x" horiz-adv-x="894" d="M45 0l332 537l-285 467q-6 14 10 18q18 2 109 2l104 -164q96 -162 140 -244q59 106 143 248l92 140q8 16 23.5 18t105.5 2l-297 -479l320 -516q7 -10 6 -16q0 -7 -8 -9q-16 -4 -121 -4l-107 164q-72 115 -172 295q-43 -80 -170 -297l-92 -139q-8 -16 -27.5 -19.5 t-105.5 -3.5z" />
<glyph unicode="y" horiz-adv-x="757" d="M2 -334q0 37 21 66q57 -29 124 -29q129 0 187 264l-266 1022q-6 27 8 31t100 4l154 -602q10 -43 59 -318q18 141 55 320l138 565q4 27 19 31t101 4l-270 -1087q-45 -182 -110.5 -257t-169.5 -75q-150 0 -150 61z" />
<glyph unicode="z" horiz-adv-x="745" d="M59 57q0 25 13 45l481 824h-248q-150 0 -231 -11q-4 27 -4 56q0 53 36 53h566q12 -12 12 -37q0 -31 -14 -59l-477 -822h237q176 0 248 17q2 -12 2 -53q0 -70 -43 -70h-557q-21 18 -21 57z" />
<glyph unicode="{" horiz-adv-x="583" d="M106 606q0 45 31 62q37 23 53.5 37t32 54t15.5 105q0 82 -14.5 219.5t-14.5 200.5q0 240 317 240q23 -33 23 -70t-29 -41q-96 -4 -146 -44t-50 -134q0 -43 12 -175t12 -220q0 -174 -121 -224q61 -23 91 -64.5t30 -127.5q0 -90 -12 -225.5t-12 -188.5q0 -129 47 -167 t164 -48q6 -29 6 -43q0 -59 -43 -59q-154 0 -221.5 63.5t-67.5 210.5q0 70 14.5 205t14.5 219q0 80 -31 116t-92 48q-9 24 -9 51z" />
<glyph unicode="|" horiz-adv-x="724" d="M305 -410v2044q0 25 16.5 30t96.5 5v-2048q0 -23 -16.5 -27t-96.5 -4z" />
<glyph unicode="}" horiz-adv-x="583" d="M37 -240q0 37 26 41q98 4 148.5 44t50.5 135q0 45 -12 177t-12 220q0 98 30.5 147t89.5 76q-59 20 -89.5 63.5t-30.5 129.5q0 90 12 224t12 189q0 127 -47 165t-166 50q-4 33 -4 43q0 59 41 60q154 0 221.5 -63.5t67.5 -211.5q0 -70 -14.5 -206t-14.5 -220 q0 -80 31 -115.5t92 -48.5q10 -23 10 -49q0 -43 -30 -63q-39 -23 -55.5 -37t-32 -54t-15.5 -106q0 -80 14.5 -218t14.5 -202q0 -238 -318 -237q-20 26 -20 67z" />
<glyph unicode="~" horiz-adv-x="819" d="M25 535q31 47 96 87t151 40q70 0 148 -50.5t139 -50.5q92 0 160 82q25 20 48.5 3t29.5 -56q-88 -133 -248 -133q-80 0 -159 50t-128 50q-39 0 -72.5 -14.5t-67.5 -41t-38 -28.5q-18 -8 -36.5 10.5t-22.5 51.5z" />
<glyph unicode="&#xa1;" horiz-adv-x="387" d="M111 948q0 41 24.5 66.5t65.5 25.5q86 0 86 -92q0 -39 -23.5 -65.5t-62.5 -26.5q-90 0 -90 92zM123 -406l18 1002q2 33 24.5 43t86.5 10l16 -1022q0 -20 -28.5 -26.5t-116.5 -6.5z" />
<glyph unicode="&#xa2;" d="M186 461q0 522 291 575v217q0 31 23.5 42.5t79.5 11.5v-267q55 -4 101 -24.5t46 -38.5q0 -53 -14 -84q-72 45 -148 45q-53 0 -94 -16.5t-83 -61.5t-64.5 -146.5t-22.5 -252.5q0 -129 14.5 -207t48 -114t69.5 -46t102 -10q94 0 178 63q14 -29 14 -73q0 -29 -59.5 -60.5 t-132.5 -33.5v-218q0 -29 -21.5 -39t-79.5 -10v271q-84 8 -133 42.5t-82 141.5t-33 293z" />
<glyph unicode="&#xa3;" horiz-adv-x="784" d="M31 569v49q0 14 3 30t8 20t15 4h123q0 303 84 425t240 122q84 0 144.5 -28t60.5 -69q0 -33 -21 -71q-74 55 -168 55q-72 0 -118 -31t-77.5 -128t-31.5 -267v-8h301q0 -63 -4 -83t-25 -20h-272q0 -250 14 -456l375 -9q10 -35 10 -53q0 -51 -112 -51h-381q-18 313 -19 569 h-149z" />
<glyph unicode="&#xa5;" d="M78 1415q-4 14 12 17q16 2 115 2l98 -293q43 -119 89 -265.5t48 -168.5q4 49 138 436l94 270q4 14 20.5 17.5t102.5 3.5l-228 -641h201q0 -55 -9 -75t-38 -20h-189l-36 -108v-127h274q0 -55 -9 -74.5t-38 -19.5h-227v-342q0 -20 -14.5 -23.5t-98.5 -3.5v369h-279 q0 55 9.5 74.5t38.5 19.5h231v119l-43 116h-236q0 55 9.5 75t38.5 20h153z" />
<glyph unicode="&#xa6;" horiz-adv-x="462" d="M174 -397v809q0 25 13.5 35t45.5 10q29 0 54 -8v-814q0 -25 -11.5 -31.5t-46.5 -6.5q-37 0 -55 6zM174 682v793q0 47 59 47q29 0 54 -9v-798q0 -25 -11.5 -33t-46.5 -8q-30 0 -55 8z" />
<glyph unicode="&#xa7;" horiz-adv-x="751" d="M96 805q0 135 127 209l-20 22q-47 53 -66.5 92t-19.5 93q0 100 82 160.5t219 60.5q88 0 149.5 -29t73.5 -59q4 -8 4 -23q0 -39 -24 -69q-80 61 -197 61q-84 0 -133 -33t-49 -88t69 -131q23 -25 121 -111t135 -129q88 -96 88 -204q0 -55 -31.5 -112.5t-95.5 -94.5l21 -23 q47 -53 66.5 -92t19.5 -92q0 -100 -82 -160.5t-217 -60.5q-90 0 -151.5 27.5t-73.5 60.5q-4 6 -5 22q0 39 25 70q78 -61 197 -61q86 0 134 32.5t48 87.5q0 59 -70 131q-20 23 -118.5 110t-137.5 130q-88 101 -88 203zM203 799q0 -74 69 -156q23 -29 174 -151q45 18 75 62 t30 79q0 74 -72 158q-27 31 -174 149q-47 -16 -74.5 -59t-27.5 -82z" />
<glyph unicode="&#xa8;" horiz-adv-x="450" d="M0 1329q0 35 21.5 59.5t58.5 24.5q39 0 60.5 -23.5t21.5 -60.5t-22.5 -60.5t-59.5 -23.5q-80 0 -80 84zM289 1329q0 35 21.5 59.5t58.5 24.5q39 0 60.5 -23.5t21.5 -60.5t-22.5 -60.5t-59.5 -23.5q-80 0 -80 84z" />
<glyph unicode="&#xa9;" horiz-adv-x="950" d="M78 1106q0 451 409 450q199 0 293 -101t94 -347q0 -219 -104 -336t-295 -117q-203 0 -300 98.5t-97 352.5zM168 1100q0 -197 73.5 -277t225.5 -80q145 0 231 92.5t86 276.5q0 195 -73.5 278t-221.5 83q-321 0 -321 -373zM311 1081q0 180 54.5 239.5t138.5 59.5 q29 0 60.5 -12t31.5 -22q0 -29 -14 -54q-37 20 -68 21q-57 0 -92 -46t-35 -188q0 -111 24.5 -142.5t82.5 -31.5q39 0 88 27q14 -29 14 -49q0 -14 -36 -29.5t-75 -15.5q-94 0 -134 44.5t-40 198.5z" />
<glyph unicode="&#xaa;" horiz-adv-x="686" d="M100 838q0 141 63.5 194t178.5 53q80 0 143 -22v160q0 129 -147 129q-109 0 -207 -49q-16 14 -19 42.5t11 43.5q74 66 248 65q213 0 213 -197v-608q-115 -57 -252 -57q-111 0 -171.5 48t-60.5 198zM195 831q0 -90 40.5 -121.5t116.5 -31.5q86 0 133 31v268 q-51 20 -114 20q-90 0 -133 -30t-43 -136z" />
<glyph unicode="&#xab;" horiz-adv-x="854" d="M57 522q0 23 77 149t153 238l75 115q18 0 36 -14.5t24 -28.5l8 -14q0 -25 -65.5 -135.5t-131.5 -208.5l-67 -101q272 -406 272 -452q-27 -70 -65 -70q-316 465 -316 522zM391 512q0 23 75 140.5t150 224.5l76 104q18 0 35.5 -13.5t26.5 -27.5l6 -14q0 -25 -64.5 -128.5 t-130.5 -195.5l-65 -90q266 -354 266 -399q-25 -68 -64 -68q-311 414 -311 467z" />
<glyph unicode="&#xac;" horiz-adv-x="819" d="M68 553q0 23 11 39t30 16h622v-381q-23 -8 -55 -8q-53 0 -53 39v242h-545q-10 24 -10 53z" />
<glyph unicode="&#xad;" horiz-adv-x="593" d="M88 526v49q0 14 3 30t8 20t16 4h391q0 -63 -4 -83t-25 -20h-389z" />
<glyph unicode="&#xae;" horiz-adv-x="950" d="M78 1106q0 451 409 450q199 0 293 -101t94 -347q0 -219 -104 -336t-295 -117q-203 0 -300 98.5t-97 352.5zM168 1100q0 -197 73.5 -277t225.5 -80q145 0 231 92.5t86 276.5q0 195 -73.5 278t-221.5 83q-321 0 -321 -373zM352 844v530q0 10 13 10h100q170 0 170 -147 q0 -113 -84 -152q80 -80 96 -225q0 -16 -22 -18q-2 0 -20.5 1t-24.5 1q-23 166 -97 225h-67v-209q0 -12 -9.5 -14t-41.5 -2h-13zM416 1128h47q104 0 104 109q0 90 -102 90h-49v-199z" />
<glyph unicode="&#xaf;" horiz-adv-x="524" d="M0 1313q4 55 47 55h467q10 -23 10 -51q-4 -57 -45 -57h-473q-6 20 -6 53z" />
<glyph unicode="&#xb0;" horiz-adv-x="759" d="M199 1335q0 186 192 187q92 0 134 -41t42 -144q0 -92 -49 -139t-141 -47q-90 0 -134 39t-44 145zM283 1331q0 -100 96 -100q106 0 106 106q0 104 -94 105q-108 0 -108 -111z" />
<glyph unicode="&#xb1;" horiz-adv-x="886" d="M86 27v49q0 14 3 29.5t8 19.5t16 4h690q0 -63 -4 -82.5t-25 -19.5h-688zM88 573v50q0 14 3 29.5t8 19.5t16 4h280v278q0 20 19.5 24.5t83.5 4.5v-307h307q0 -66 -4 -84.5t-25 -18.5h-278v-280q0 -18 -19.5 -22.5t-83.5 -4.5v307h-307z" />
<glyph unicode="&#xb2;" horiz-adv-x="821" d="M106 633q0 45 19 65q57 63 181 171t183.5 182.5t59.5 152.5q0 61 -34 98t-124 37q-115 0 -235 -90q-25 35 -25 70q0 43 96.5 89t204.5 46q139 0 193.5 -58.5t54.5 -162.5q0 -74 -45 -150.5t-98.5 -129t-139.5 -131.5t-127 -124h439q8 -37 8 -49q0 -57 -39 -57h-563 q-9 16 -9 41z" />
<glyph unicode="&#xb3;" horiz-adv-x="847" d="M125 672q0 37 31 63q76 -59 215 -59q109 0 173 45t64 125q0 55 -39 93t-100 46q-47 8 -168 8q-12 16 -12 51q0 41 37 41q53 0 135 -8q106 70 106 162q0 43 -37.5 78t-126.5 35q-139 0 -239 -80q-23 23 -24 54.5t16 41.5q90 86 284 86q129 0 188.5 -52t59.5 -132 q0 -125 -115 -215q70 -25 110 -77t40 -122q0 -139 -96.5 -212t-258 -73t-227.5 58q-16 14 -16 43z" />
<glyph unicode="&#xb4;" horiz-adv-x="331" d="M0 1249q51 53 118.5 112.5t111.5 94.5t49 35q18 0 33.5 -32t19.5 -58q-12 -16 -110.5 -91t-176.5 -126q-10 0 -21.5 16.5t-17.5 32.5z" />
<glyph unicode="&#xb5;" horiz-adv-x="858" d="M119 -391v1376q0 49 55 49q33 0 55 -8v-760q0 -180 195 -180q109 0 201 41v856q0 27 11 39t44 12t55 -8v-979q-156 -68 -311 -67q-137 0 -195 73v-407q0 -45 -61 -45q-24 0 -49 8z" />
<glyph unicode="&#x3bc;" horiz-adv-x="858" d="M119 -391v1376q0 49 55 49q33 0 55 -8v-760q0 -180 195 -180q109 0 201 41v856q0 27 11 39t44 12t55 -8v-979q-156 -68 -311 -67q-137 0 -195 73v-407q0 -45 -61 -45q-24 0 -49 8z" />
<glyph unicode="&#xb6;" horiz-adv-x="1118" d="M88 864q0 291 106.5 439.5t299.5 148.5q137 0 237 -53v-1364q0 -41 -57 -41q-33 0 -53 8v422q-68 -35 -187 -35q-152 0 -249 108.5t-97 366.5zM203 874q0 -387 258 -391q90 -4 157 37v805q-41 29 -139 29q-133 0 -204.5 -124.5t-71.5 -355.5zM885 2v1364q0 47 59 47 q23 0 53 -10v-1368q0 -23 -11 -31t-46 -8q-37 0 -55 6z" />
<glyph unicode="&#xb7;" horiz-adv-x="425" d="M121 551q0 39 23.5 65.5t62.5 26.5q90 0 90 -92q0 -39 -24.5 -65.5t-65.5 -26.5q-86 0 -86 92z" />
<glyph unicode="&#xb8;" horiz-adv-x="256" d="M0 -375q8 53 20 68q10 4 19.5 0t31 -11.5t40.5 -7.5q70 0 69 74q0 72 -67 72l-80 -13l39 199h73l-26 -129q2 4 37 4q41 0 70.5 -29.5t29.5 -89.5q0 -78 -43 -117.5t-104 -39.5z" />
<glyph unicode="&#xb9;" horiz-adv-x="835" d="M125 639q0 59 39 59h231v631l-250 -51q-14 20 -14 53q0 41 39 53q233 70 301 70q25 0 39 -6v-750h195q6 -27 6 -51q0 -55 -37 -55h-543q-6 27 -6 47z" />
<glyph unicode="&#xba;" horiz-adv-x="712" d="M86 1020q0 221 75 327.5t208 106.5q135 0 196.5 -93t61.5 -339q0 -428 -279 -428q-133 0 -197.5 90t-64.5 336zM184 1012q0 -184 40 -253t124 -69q182 0 182 334q0 186 -38.5 257t-120.5 71q-187 0 -187 -340z" />
<glyph unicode="&#xbb;" horiz-adv-x="849" d="M88 111q0 49 266 401q2 0 -62.5 91t-131 194.5t-66.5 128.5q0 41 64 57q305 -418 305 -471q0 -25 -78 -142.5t-156 -222.5l-79 -104q-6 2 -16.5 6t-28 21.5t-17.5 40.5zM412 67.5q0 22.5 68.5 136t135.5 216.5l68 102q-264 389 -264 445q0 18 17.5 32.5t33.5 20.5l16 4 q305 -451 306 -502q0 -25 -79 -155.5t-157 -247.5l-80 -119q-8 2 -18 6t-28.5 21.5t-18.5 40z" />
<glyph unicode="&#xbc;" horiz-adv-x="1796" d="M125 639q0 59 39 59h231v631l-250 -51q-14 20 -14 53q0 41 39 53q233 70 301 70q25 0 39 -6v-750h195q6 -27 6 -51q0 -55 -37 -55h-543q-6 27 -6 47zM485 29l818 1401q8 27 36 26q41 0 76 -43l-819 -1411q-8 -18 -33 -18q-49 0 -78 45zM1012 205q0 23 14 63 q41 127 147.5 294t204.5 261q37 39 92 39q10 0 48 -6v-596h143q10 -25 10 -55q0 -53 -35 -53h-118v-123q0 -39 -62 -39q-20 0 -45 6v156h-383q-16 18 -16 53zM1122 254h291l4 467q-78 -70 -168 -208t-127 -259z" />
<glyph unicode="&#xbd;" horiz-adv-x="1865" d="M125 639q0 59 39 59h231v631l-250 -51q-14 20 -14 53q0 41 39 53q233 70 301 70q25 0 39 -6v-750h195q6 -27 6 -51q0 -55 -37 -55h-543q-6 27 -6 47zM485 29l818 1401q8 27 36 26q41 0 76 -43l-819 -1411q-8 -18 -33 -18q-49 0 -78 45zM1133 41q0 45 18 65q57 63 181 171 t183.5 183t59.5 152q0 61 -34 98.5t-124 37.5q-115 0 -235 -91q-25 35 -25 70q0 43 96.5 89t204.5 46q139 0 193.5 -58.5t54.5 -162.5q0 -74 -45 -150.5t-98.5 -129t-139.5 -131t-127 -124.5h439q8 -37 8 -49q0 -57 -39 -57h-563q-8 16 -8 41z" />
<glyph unicode="&#xbe;" horiz-adv-x="1789" d="M125 672q0 37 31 63q76 -59 215 -59q109 0 173 45t64 125q0 55 -39 93t-100 46q-47 8 -168 8q-12 16 -12 51q0 41 37 41q53 0 135 -8q106 70 106 162q0 43 -37.5 78t-126.5 35q-139 0 -239 -80q-23 23 -24 54.5t16 41.5q90 86 284 86q129 0 188.5 -52t59.5 -132 q0 -125 -115 -215q70 -25 110 -77t40 -122q0 -139 -96.5 -212t-258 -73t-227.5 58q-16 14 -16 43zM498 29l817 1401q8 27 37 26q41 0 75 -43l-819 -1411q-8 -18 -33 -18q-48 0 -77 45zM1006 205q0 23 14 63q41 127 147.5 294t204.5 261q37 39 92 39q10 0 47 -6v-596h144 q10 -25 10 -55q0 -53 -35 -53h-119v-123q0 -39 -61 -39q-20 0 -45 6v156h-383q-16 18 -16 53zM1116 254h291l4 467q-78 -70 -168 -208t-127 -259z" />
<glyph unicode="&#xbf;" horiz-adv-x="618" d="M29 -109q0 82 28.5 161t63.5 127t82 109.5t65 94.5q37 63 37 139q0 25 -4 55.5t-7 41t1 20.5q18 27 102 12q23 -51 23 -125q0 -94 -47 -178q-27 -47 -90.5 -130t-99.5 -153.5t-36 -152.5q0 -199 199 -199q117 0 197 62q14 -39 14 -88q0 -31 -77 -58.5t-165 -27.5 q-125 0 -205.5 68t-80.5 222zM254 946q0 39 24.5 65.5t65.5 26.5q86 0 86 -92q0 -39 -23.5 -65.5t-62.5 -26.5q-90 0 -90 92z" />
<glyph unicode="&#xc0;" horiz-adv-x="892" d="M14 2l387 1421q4 18 39 19q31 0 49 -6l388 -1409q4 -16 -6.5 -22.5t-41.5 -6.5q-39 0 -67 2l-103 395h-426l-94 -372q-4 -25 -55 -25q-41 0 -70 4zM209 1821q4 27 19.5 57.5t33.5 30.5q6 0 134 -108.5t145 -131.5q-23 -66 -43 -65q-6 0 -140.5 101.5t-148.5 115.5z M260 500h371l-99 379q-78 303 -86 401q-14 -127 -88 -401z" />
<glyph unicode="&#xc1;" horiz-adv-x="892" d="M14 2l387 1421q4 18 39 19q31 0 49 -6l388 -1409q4 -16 -6.5 -22.5t-41.5 -6.5q-39 0 -67 2l-103 395h-426l-94 -372q-4 -25 -55 -25q-41 0 -70 4zM260 500h371l-99 379q-78 303 -86 401q-14 -127 -88 -401zM362 1659q51 53 119 112.5t112 94.5t48 35q18 0 33.5 -32 t19.5 -59q-12 -16 -110.5 -90.5t-175.5 -126.5q-10 0 -21.5 16.5t-17.5 32.5z" />
<glyph unicode="&#xc2;" horiz-adv-x="892" d="M14 2l387 1421q4 18 39 19q31 0 49 -6l388 -1409q4 -16 -6.5 -22.5t-41.5 -6.5q-39 0 -67 2l-103 395h-426l-94 -372q-4 -25 -55 -25q-41 0 -70 4zM195 1636l227 234q12 4 27 4q25 0 40 -19q199 -201 199 -219q0 -12 -26.5 -26.5t-57.5 -14.5q-143 150 -158 177 q-150 -174 -174 -175q-48 0 -77 39zM260 500h371l-99 379q-78 303 -86 401q-14 -127 -88 -401z" />
<glyph unicode="&#xc3;" horiz-adv-x="892" d="M14 2l387 1421q4 18 39 19q31 0 49 -6l388 -1409q4 -16 -6.5 -22.5t-41.5 -6.5q-39 0 -67 2l-103 395h-426l-94 -372q-4 -25 -55 -25q-41 0 -70 4zM152 1688q82 139 208 139q47 0 95.5 -52.5t91.5 -52.5q47 0 76.5 23.5t44 46.5t22.5 23q12 0 23.5 -16.5t15.5 -33.5 l6 -16q-12 -27 -33.5 -53.5t-68.5 -54t-101 -27.5q-66 0 -113.5 54t-78.5 54q-35 0 -61.5 -23.5t-43 -46t-24.5 -22.5q-30 1 -59 58zM260 500h371l-99 379q-78 303 -86 401q-14 -127 -88 -401z" />
<glyph unicode="&#xc4;" horiz-adv-x="892" d="M14 2l387 1421q4 18 39 19q31 0 49 -6l388 -1409q4 -16 -6.5 -22.5t-41.5 -6.5q-39 0 -67 2l-103 395h-426l-94 -372q-4 -25 -55 -25q-41 0 -70 4zM223 1739q0 35 21.5 59.5t58.5 24.5q39 0 60.5 -23.5t21.5 -60.5t-22.5 -60.5t-59.5 -23.5q-80 0 -80 84zM260 500h371 l-99 379q-78 303 -86 401q-14 -127 -88 -401zM512 1739q0 35 21.5 59.5t58.5 24.5q39 0 60.5 -23.5t21.5 -60.5t-22.5 -60.5t-59.5 -23.5q-80 0 -80 84z" />
<glyph unicode="&#xc5;" horiz-adv-x="892" d="M14 2l387 1421q4 18 39 19q31 0 49 -6l388 -1409q4 -16 -6.5 -22.5t-41.5 -6.5q-39 0 -67 2l-103 395h-426l-94 -372q-4 -25 -55 -25q-41 0 -70 4zM260 500h371l-99 379q-78 303 -86 401q-14 -127 -88 -401zM260 1769q0 186 193 187q92 0 134 -41t42 -143 q0 -186 -191 -187q-88 0 -133 42t-45 142zM348 1765q0 -98 92 -98q102 0 103 105q0 100 -90 100q-53 0 -79 -25t-26 -82z" />
<glyph unicode="&#xc6;" horiz-adv-x="1314" d="M37 2l672 1409q6 23 36 23h515q0 -72 -3.5 -88.5t-19.5 -16.5h-383v-493h358q0 -70 -3 -87.5t-19 -17.5h-336v-627h403q0 -74 -3 -89t-21 -15h-492v395h-401l-178 -372q-10 -25 -56 -25q-40 0 -69 4zM389 500h352v800q-74 -203 -174 -430z" />
<glyph unicode="&#xc7;" horiz-adv-x="722" d="M80 649q0 207 24.5 359.5t61.5 236.5t93 133t105.5 63.5t112.5 14.5q92 0 141.5 -32.5t49.5 -69.5t-21 -70q-72 63 -153 64q-49 0 -87 -13.5t-79 -56.5t-69 -117t-45 -205t-17 -309q0 -168 19.5 -281.5t56 -169t75.5 -76t92 -20.5q66 0 125.5 28t87.5 62q20 -37 21 -71 q0 -47 -65.5 -90t-159.5 -49l-21 -103q2 4 37 4q41 0 70.5 -29.5t29.5 -89.5q0 -78 -43 -117.5t-104 -39.5l-109 20q8 53 21 68q10 4 19 0t30.5 -11.5t40.5 -7.5q70 0 69 74q0 72 -67 72l-80 -13l33 173q-51 4 -90 19t-79 59t-66.5 115t-43 191.5t-16.5 284.5z" />
<glyph unicode="&#xc8;" horiz-adv-x="690" d="M117 0v1405q0 29 26 29h490q0 -104 -21 -105h-385v-493h361q0 -70 -3 -87.5t-22 -17.5h-336v-627h404q0 -74 -3 -89t-22 -15h-489zM162 1821q4 27 19.5 57.5t33.5 30.5q6 0 134 -108.5t145 -131.5q-23 -66 -43 -65q-6 0 -140.5 101.5t-148.5 115.5z" />
<glyph unicode="&#xc9;" horiz-adv-x="690" d="M117 0v1405q0 29 26 29h490q0 -104 -21 -105h-385v-493h361q0 -70 -3 -87.5t-22 -17.5h-336v-627h404q0 -74 -3 -89t-22 -15h-489zM313 1659q51 53 119 112.5t112 94.5t48 35q18 0 33.5 -32t19.5 -59q-12 -16 -110.5 -90.5t-176.5 -126.5q-10 0 -21 16.5t-18 32.5z" />
<glyph unicode="&#xca;" horiz-adv-x="690" d="M117 0v1405q0 29 26 29h490q0 -104 -21 -105h-385v-493h361q0 -70 -3 -87.5t-22 -17.5h-336v-627h404q0 -74 -3 -89t-22 -15h-489zM145 1636l228 234q12 4 26 4q25 0 41 -19q199 -201 199 -219q0 -12 -26.5 -26.5t-57.5 -14.5q-143 150 -158 177q-150 -174 -174 -175 q-49 0 -78 39z" />
<glyph unicode="&#xcb;" horiz-adv-x="690" d="M117 0v1405q0 29 26 29h490q0 -104 -21 -105h-385v-493h361q0 -70 -3 -87.5t-22 -17.5h-336v-627h404q0 -74 -3 -89t-22 -15h-489zM174 1739q0 35 21.5 59.5t58.5 24.5q39 0 60.5 -23.5t21.5 -60.5t-22.5 -60.5t-59.5 -23.5q-80 0 -80 84zM463 1739q0 35 21.5 59.5 t58.5 24.5q39 0 60.5 -23.5t21.5 -60.5t-22.5 -60.5t-59.5 -23.5q-80 0 -80 84z" />
<glyph unicode="&#xcc;" horiz-adv-x="337" d="M-68 1821q4 27 19.5 57.5t34.5 30.5q6 0 134 -108.5t144 -131.5q-23 -66 -43 -65q-6 0 -140.5 101.5t-148.5 115.5zM111 0v1376q0 43 15 50.5t99 7.5v-1407q0 -20 -14 -23.5t-100 -3.5z" />
<glyph unicode="&#xcd;" horiz-adv-x="337" d="M84 1659q51 53 118.5 112.5t111.5 94.5t48 35q18 0 34 -32t20 -59q-12 -16 -110.5 -90.5t-176.5 -126.5q-10 0 -21.5 16.5t-17.5 32.5zM111 0v1376q0 43 15 50.5t99 7.5v-1407q0 -20 -14 -23.5t-100 -3.5z" />
<glyph unicode="&#xce;" horiz-adv-x="337" d="M-82 1636l227 234q12 4 27 4q25 0 41 -19q199 -201 199 -219q0 -12 -27 -26.5t-57 -14.5q-143 150 -158 177q-150 -174 -174 -175q-49 0 -78 39zM111 0v1376q0 43 15 50.5t99 7.5v-1407q0 -20 -14 -23.5t-100 -3.5z" />
<glyph unicode="&#xcf;" horiz-adv-x="337" d="M-53 1739q0 35 21.5 59.5t58.5 24.5q39 0 60.5 -23.5t21.5 -60.5t-23 -60.5t-59 -23.5q-80 0 -80 84zM111 0v1376q0 43 15 50.5t99 7.5v-1407q0 -20 -14 -23.5t-100 -3.5zM236 1739q0 35 21.5 59.5t57.5 24.5q39 0 60.5 -23.5t21.5 -60.5t-22.5 -60.5t-59.5 -23.5 q-79 0 -79 84z" />
<glyph unicode="&#xd0;" horiz-adv-x="847" d="M25 705v49q0 14 3 28.5t8 18.5t15 4h64v594q0 35 51 35h205q203 0 300 -145.5t97 -487.5q0 -238 -29.5 -399.5t-87 -246.5t-126 -120t-163.5 -35h-247v705h-90zM227 109h138q47 0 83.5 13t75.5 56t63.5 117t41 202t16.5 304q0 287 -65.5 407.5t-210.5 120.5h-142v-524 h213q0 -63 -4 -81.5t-24 -18.5h-185v-596z" />
<glyph unicode="&#xd1;" horiz-adv-x="933" d="M113 0v1405q0 29 26 29h80l246 -566q39 -109 254 -647q-10 154 -10 699v485q0 20 14 24.5t98 4.5v-1407q0 -27 -26 -27h-78l-252 575q-57 135 -250 642q8 -303 8 -689v-501q0 -20 -13 -23.5t-97 -3.5zM190 1688q82 139 209 139q47 0 95.5 -52.5t91.5 -52.5 q47 0 76.5 23.5t44 46.5t22.5 23q12 0 23.5 -16.5t17.5 -33.5l4 -16q-12 -27 -33.5 -53.5t-68.5 -54t-101 -27.5q-66 0 -113.5 54t-78.5 54q-35 0 -61.5 -23.5t-43 -46t-24.5 -22.5q-31 1 -60 58z" />
<glyph unicode="&#xd2;" horiz-adv-x="913" d="M78 727q0 391 95 559t298 168q201 0 283 -159.5t82 -565.5q0 -410 -91.5 -579.5t-295.5 -169.5q-203 0 -287 161.5t-84 585.5zM203 692q0 -326 56 -461t194 -135q141 0 201.5 144.5t60.5 490.5q0 338 -55.5 473t-192.5 135t-200.5 -148.5t-63.5 -498.5zM240 1821 q4 27 19 57.5t34 30.5q6 0 134 -108.5t144 -131.5q-23 -66 -43 -65q-6 0 -140 101.5t-148 115.5z" />
<glyph unicode="&#xd3;" horiz-adv-x="913" d="M78 727q0 391 95 559t298 168q201 0 283 -159.5t82 -565.5q0 -410 -91.5 -579.5t-295.5 -169.5q-203 0 -287 161.5t-84 585.5zM203 692q0 -326 56 -461t194 -135q141 0 201.5 144.5t60.5 490.5q0 338 -55.5 473t-192.5 135t-200.5 -148.5t-63.5 -498.5zM391 1659 q51 53 119 112.5t112 94.5t48 35q18 0 33.5 -32t19.5 -59q-12 -16 -110.5 -90.5t-176.5 -126.5q-10 0 -21.5 16.5t-17.5 32.5z" />
<glyph unicode="&#xd4;" horiz-adv-x="913" d="M78 727q0 391 95 559t298 168q201 0 283 -159.5t82 -565.5q0 -410 -91.5 -579.5t-295.5 -169.5q-203 0 -287 161.5t-84 585.5zM203 692q0 -326 56 -461t194 -135q141 0 201.5 144.5t60.5 490.5q0 338 -55.5 473t-192.5 135t-200.5 -148.5t-63.5 -498.5zM223 1636l228 234 q12 4 26 4q25 0 41 -19q199 -201 199 -219q0 -12 -26.5 -26.5t-57.5 -14.5q-143 150 -158 177q-150 -174 -174 -175q-49 0 -78 39z" />
<glyph unicode="&#xd5;" horiz-adv-x="913" d="M78 727q0 391 95 559t298 168q201 0 283 -159.5t82 -565.5q0 -410 -91.5 -579.5t-295.5 -169.5q-203 0 -287 161.5t-84 585.5zM180 1688q82 139 209 139q47 0 95 -52.5t91 -52.5q47 0 77 23.5t44.5 46.5t22.5 23q12 0 23.5 -16.5t15.5 -33.5l6 -16q-12 -27 -33.5 -53.5 t-69 -54t-100.5 -27.5q-66 0 -114 54t-78 54q-35 0 -61.5 -23.5t-43 -46t-24.5 -22.5q-31 1 -60 58zM203 692q0 -326 56 -461t194 -135q141 0 201.5 144.5t60.5 490.5q0 338 -55.5 473t-192.5 135t-200.5 -148.5t-63.5 -498.5z" />
<glyph unicode="&#xd6;" horiz-adv-x="913" d="M78 727q0 391 95 559t298 168q201 0 283 -159.5t82 -565.5q0 -410 -91.5 -579.5t-295.5 -169.5q-203 0 -287 161.5t-84 585.5zM203 692q0 -326 56 -461t194 -135q141 0 201.5 144.5t60.5 490.5q0 338 -55.5 473t-192.5 135t-200.5 -148.5t-63.5 -498.5zM252 1739 q0 35 21.5 59.5t58.5 24.5q39 0 60.5 -23.5t21.5 -60.5t-22.5 -60.5t-59.5 -23.5q-80 0 -80 84zM541 1739q0 35 21.5 59.5t58.5 24.5q39 0 60 -23.5t21 -60.5t-22.5 -60.5t-58.5 -23.5q-80 0 -80 84z" />
<glyph unicode="&#xd7;" d="M178 795q63 61 80 59q6 0 12 -6l170 -193l172 193q16 10 29.5 2t52.5 -45l11 -10l-195 -220l192 -215q-45 -47 -57 -55t-35 2l-170 191l-168 -191q-8 -8 -15 -9t-19.5 8t-22.5 20l-35 34l191 215z" />
<glyph unicode="&#xd8;" horiz-adv-x="950" d="M96 727q0 391 93.5 559t295.5 168q156 0 238 -90l43 109q70 -4 76 -37q0 -16 -58 -172q70 -170 70 -535q0 -410 -90 -579.5t-295 -169.5q-160 0 -244 92l-43 -105q-18 -2 -43.5 7.5t-29.5 29.5q0 2 10 28.5t26 67.5l25 62q-74 166 -74 565zM221 692q0 -297 43 -432 l379 1008q-55 72 -156 71q-139 0 -202.5 -147.5t-63.5 -499.5zM309 166q53 -72 156 -72q94 0 150.5 53.5t87 194.5t30.5 389q0 305 -43 440q-277 -741 -381 -1005z" />
<glyph unicode="&#xd9;" horiz-adv-x="937" d="M113 440v965q0 20 14 24.5t100 4.5v-998q0 -66 4.5 -111.5t19.5 -94t43 -78t75 -48t114 -18.5q143 0 230 43v1278q0 20 15 23.5t99 3.5v-1383q-43 -29 -140 -50t-204 -21q-98 0 -167.5 25.5t-108.5 64.5t-60.5 103.5t-27.5 123.5t-6 143zM246 1821q4 27 19.5 57.5 t33.5 30.5q6 0 134 -108.5t145 -131.5q-23 -66 -43 -65q-6 0 -140.5 101.5t-148.5 115.5z" />
<glyph unicode="&#xda;" horiz-adv-x="937" d="M113 440v965q0 20 14 24.5t100 4.5v-998q0 -66 4.5 -111.5t19.5 -94t43 -78t75 -48t114 -18.5q143 0 230 43v1278q0 20 15 23.5t99 3.5v-1383q-43 -29 -140 -50t-204 -21q-98 0 -167.5 25.5t-108.5 64.5t-60.5 103.5t-27.5 123.5t-6 143zM397 1659q51 53 119 112.5 t112 94.5t48 35q18 0 33.5 -32t19.5 -59q-12 -16 -110.5 -90.5t-176.5 -126.5q-10 0 -21 16.5t-18 32.5z" />
<glyph unicode="&#xdb;" horiz-adv-x="937" d="M113 440v965q0 20 14 24.5t100 4.5v-998q0 -66 4.5 -111.5t19.5 -94t43 -78t75 -48t114 -18.5q143 0 230 43v1278q0 20 15 23.5t99 3.5v-1383q-43 -29 -140 -50t-204 -21q-98 0 -167.5 25.5t-108.5 64.5t-60.5 103.5t-27.5 123.5t-6 143zM229 1636l228 234q12 4 26 4 q25 0 41 -19q199 -201 199 -219q0 -12 -26.5 -26.5t-57.5 -14.5q-143 150 -158 177q-150 -174 -174 -175q-49 0 -78 39z" />
<glyph unicode="&#xdc;" horiz-adv-x="937" d="M113 440v965q0 20 14 24.5t100 4.5v-998q0 -66 4.5 -111.5t19.5 -94t43 -78t75 -48t114 -18.5q143 0 230 43v1278q0 20 15 23.5t99 3.5v-1383q-43 -29 -140 -50t-204 -21q-98 0 -167.5 25.5t-108.5 64.5t-60.5 103.5t-27.5 123.5t-6 143zM258 1739q0 35 21.5 59.5 t58.5 24.5q39 0 60.5 -23.5t21.5 -60.5t-22.5 -60.5t-59.5 -23.5q-80 0 -80 84zM547 1739q0 35 21.5 59.5t58.5 24.5q39 0 60.5 -23.5t21.5 -60.5t-22.5 -60.5t-59.5 -23.5q-80 0 -80 84z" />
<glyph unicode="&#xdd;" horiz-adv-x="739" d="M12 1415q-4 14 13 17q16 2 114 2l99 -293q39 -106 86 -262t53 -193q16 109 139 457l90 270q4 14 20.5 17.5t102.5 3.5l-299 -848v-559q0 -20 -13.5 -23.5t-99.5 -3.5v582zM293 1659q51 53 118.5 112.5t111.5 94.5t48 35q18 0 34 -32t20 -59q-12 -16 -110.5 -90.5 t-176.5 -126.5q-10 0 -21.5 16.5t-17.5 32.5z" />
<glyph unicode="&#xde;" horiz-adv-x="757" d="M113 0v1403q0 20 14 25.5t61 5.5h35v-265h129q358 0 359 -391q0 -223 -98.5 -329.5t-268.5 -106.5h-121v-315q0 -20 -15 -23.5t-95 -3.5zM223 451q6 0 65.5 -1t63.5 -1q236 0 236 339q0 279 -226 279q-39 0 -70.5 -1t-48.5 -1h-20v-614z" />
<glyph unicode="&#xdf;" horiz-adv-x="962" d="M100 2q18 39 19 109l-2 1013q0 317 321 318q201 0 299.5 -90t98.5 -201q0 -63 -41 -112.5t-90.5 -75t-90.5 -65.5t-41 -87q0 -39 37 -81t90.5 -84t106.5 -90t90 -121t37 -156q0 -141 -82 -219t-225 -78q-74 0 -131.5 15t-84 34.5t-26.5 38.5q0 39 31 77q72 -63 190 -63 q92 0 149.5 48t57.5 142q0 82 -56.5 157t-124 124t-123.5 115.5t-56 134.5q0 63 41 112.5t91 77t91 68.5t41 88q0 72 -69.5 129t-201.5 57q-115 0 -166 -64.5t-51 -213.5l2 -1002q0 -41 -13 -58t-52 -17q-18 0 -34.5 5t-25.5 9z" />
<glyph unicode="&#xe0;" horiz-adv-x="751" d="M74 285q0 104 24.5 173.5t71.5 102.5t95 45t114 12q109 0 168 -24v180q0 94 -41 128t-121 34q-180 0 -295 -51q-16 33 -16 65q0 29 16 41q33 20 125 36.5t197 16.5q127 0 186 -56t59 -191v-123q0 -354 -10 -621q-121 -74 -278 -73q-51 0 -88 4t-79 21.5t-67.5 50t-43 90 t-17.5 139.5zM143 1411q4 27 19.5 57.5t34.5 30.5q6 0 134 -108.5t144 -130.5q-23 -66 -43 -66q-6 0 -140.5 101.5t-148.5 115.5zM190 289q0 -70 14.5 -115t45.5 -64.5t59.5 -25.5t75.5 -6q102 0 152 45q10 143 10 387q-55 20 -133 20q-106 0 -165 -47t-59 -194z" />
<glyph unicode="&#xe1;" horiz-adv-x="751" d="M74 285q0 104 24.5 173.5t71.5 102.5t95 45t114 12q109 0 168 -24v180q0 94 -41 128t-121 34q-180 0 -295 -51q-16 33 -16 65q0 29 16 41q33 20 125 36.5t197 16.5q127 0 186 -56t59 -191v-123q0 -354 -10 -621q-121 -74 -278 -73q-51 0 -88 4t-79 21.5t-67.5 50t-43 90 t-17.5 139.5zM190 289q0 -70 14.5 -115t45.5 -64.5t59.5 -25.5t75.5 -6q102 0 152 45q10 143 10 387q-55 20 -133 20q-106 0 -165 -47t-59 -194zM297 1249q51 53 118.5 112.5t111.5 94.5t48 35q18 0 34 -32t20 -58q-12 -16 -110.5 -91t-176.5 -126q-10 0 -21.5 16.5 t-17.5 32.5z" />
<glyph unicode="&#xe2;" horiz-adv-x="751" d="M74 285q0 104 24.5 173.5t71.5 102.5t95 45t114 12q109 0 168 -24v180q0 94 -41 128t-121 34q-180 0 -295 -51q-16 33 -16 65q0 29 16 41q33 20 125 36.5t197 16.5q127 0 186 -56t59 -191v-123q0 -354 -10 -621q-121 -74 -278 -73q-51 0 -88 4t-79 21.5t-67.5 50t-43 90 t-17.5 139.5zM129 1227l227 233q12 4 27 4q25 0 41 -18q199 -201 199 -219q0 -12 -27 -26.5t-57 -14.5q-143 150 -158 176q-150 -174 -174 -174q-49 0 -78 39zM190 289q0 -70 14.5 -115t45.5 -64.5t59.5 -25.5t75.5 -6q102 0 152 45q10 143 10 387q-55 20 -133 20 q-106 0 -165 -47t-59 -194z" />
<glyph unicode="&#xe3;" horiz-adv-x="751" d="M74 285q0 104 24.5 173.5t71.5 102.5t95 45t114 12q109 0 168 -24v180q0 94 -41 128t-121 34q-180 0 -295 -51q-16 33 -16 65q0 29 16 41q33 20 125 36.5t197 16.5q127 0 186 -56t59 -191v-123q0 -354 -10 -621q-121 -74 -278 -73q-51 0 -88 4t-79 21.5t-67.5 50t-43 90 t-17.5 139.5zM86 1278q82 139 209 139q47 0 95 -52t91 -52q47 0 77 23.5t44 46t23 22.5q12 0 23 -16.5t16 -32.5l6 -17q-12 -27 -34 -53t-69 -54t-100 -28q-66 0 -114 54.5t-79 54.5q-35 0 -61.5 -23.5t-42.5 -46t-25 -22.5q-30 0 -59 57zM190 289q0 -70 14.5 -115 t45.5 -64.5t59.5 -25.5t75.5 -6q102 0 152 45q10 143 10 387q-55 20 -133 20q-106 0 -165 -47t-59 -194z" />
<glyph unicode="&#xe4;" horiz-adv-x="751" d="M74 285q0 104 24.5 173.5t71.5 102.5t95 45t114 12q109 0 168 -24v180q0 94 -41 128t-121 34q-180 0 -295 -51q-16 33 -16 65q0 29 16 41q33 20 125 36.5t197 16.5q127 0 186 -56t59 -191v-123q0 -354 -10 -621q-121 -74 -278 -73q-51 0 -88 4t-79 21.5t-67.5 50t-43 90 t-17.5 139.5zM158 1329q0 35 21.5 59.5t58.5 24.5q39 0 60 -23.5t21 -60.5t-22.5 -60.5t-58.5 -23.5q-80 0 -80 84zM190 289q0 -70 14.5 -115t45.5 -64.5t59.5 -25.5t75.5 -6q102 0 152 45q10 143 10 387q-55 20 -133 20q-106 0 -165 -47t-59 -194zM446 1329q0 35 21.5 59.5 t58.5 24.5q39 0 60.5 -23.5t21.5 -60.5t-22.5 -60.5t-59.5 -23.5q-80 0 -80 84z" />
<glyph unicode="&#xe5;" horiz-adv-x="751" d="M74 285q0 104 24.5 173.5t71.5 102.5t95 45t114 12q109 0 168 -24v180q0 94 -41 128t-121 34q-180 0 -295 -51q-16 33 -16 65q0 29 16 41q33 20 125 36.5t197 16.5q127 0 186 -56t59 -191v-123q0 -354 -10 -621q-121 -74 -278 -73q-51 0 -88 4t-79 21.5t-67.5 50t-43 90 t-17.5 139.5zM190 289q0 -70 14.5 -115t45.5 -64.5t59.5 -25.5t75.5 -6q102 0 152 45q10 143 10 387q-55 20 -133 20q-106 0 -165 -47t-59 -194zM195 1360q0 186 192 186q92 0 134 -41t42 -143q0 -186 -190 -186q-88 0 -133 42t-45 142zM283 1356q0 -98 92 -99 q102 0 102 105q0 100 -90 100q-53 0 -78.5 -24.5t-25.5 -81.5z" />
<glyph unicode="&#xe6;" horiz-adv-x="1269" d="M74 291q0 197 83 269.5t220 72.5q111 0 170 -25v172q0 92 -45 127t-129 35q-172 0 -277 -59q-14 27 -14 67q0 29 18 39q86 55 312 55q100 0 154.5 -37.5t68.5 -123.5q47 96 116.5 128.5t168.5 32.5q258 0 258 -317q0 -156 -21 -252q-92 -14 -190 -14q-156 0 -299 31v-35 q0 -121 15 -197t49 -111.5t71 -46t96 -10.5q154 0 254 70q14 -35 14 -103q0 -12 -36.5 -29.5t-104.5 -31.5t-137 -14q-180 0 -246 94v-35q-104 -61 -274 -61q-66 0 -110 8t-91 35.5t-70.5 94.5t-23.5 171zM190 289q0 -133 48.5 -172t144.5 -39q121 0 164 43v403 q-55 20 -133 21q-104 0 -164 -52t-60 -204zM672 586q158 -33 280 -33q63 0 107 8q8 66 8 144q-2 127 -36 182t-122 55q-92 0 -156.5 -72.5t-80.5 -283.5z" />
<glyph unicode="&#xe7;" horiz-adv-x="677" d="M82 489q0 141 23.5 246t58.5 163t86 92t97 44t104 10q72 0 122 -24.5t50 -57t-15 -67.5q-68 47 -159 47q-39 0 -70 -8t-67 -36t-59.5 -75t-39.5 -134t-16 -206q0 -236 55 -318.5t168 -82.5q119 0 188 61q14 -35 15 -65q0 -33 -56.5 -61.5t-142.5 -34.5l-21 -105q2 4 37 4 q41 0 71 -29.5t30 -89.5q0 -78 -43 -117.5t-105 -39.5l-108 20q8 53 20 68q10 4 19.5 0t31 -11.5t39.5 -7.5q70 0 70 74q0 72 -68 72l-80 -13l33 175q-135 8 -201.5 114t-66.5 393z" />
<glyph unicode="&#xe8;" horiz-adv-x="768" d="M78 457q0 152 22.5 262t56 171.5t86 97.5t97.5 46t104 10q258 0 258 -323q0 -150 -20 -246q-182 -37 -489 -37q0 -143 31.5 -222t79.5 -102.5t128 -23.5q147 0 246 70q14 -37 14 -80q0 -37 -84 -68.5t-194 -31.5q-80 0 -135.5 17t-104.5 65.5t-72.5 146.5t-23.5 248z M193 1411q4 27 19 57.5t34 30.5q6 0 134 -108.5t144 -130.5q-23 -66 -43 -66q-6 0 -140 101.5t-148 115.5zM195 532q274 0 389 29q8 66 8 137q-2 129 -36 186.5t-122 57.5q-45 0 -80 -14.5t-71.5 -53t-60 -126t-27.5 -216.5z" />
<glyph unicode="&#xe9;" horiz-adv-x="768" d="M78 457q0 152 22.5 262t56 171.5t86 97.5t97.5 46t104 10q258 0 258 -323q0 -150 -20 -246q-182 -37 -489 -37q0 -143 31.5 -222t79.5 -102.5t128 -23.5q147 0 246 70q14 -37 14 -80q0 -37 -84 -68.5t-194 -31.5q-80 0 -135.5 17t-104.5 65.5t-72.5 146.5t-23.5 248z M195 532q274 0 389 29q8 66 8 137q-2 129 -36 186.5t-122 57.5q-45 0 -80 -14.5t-71.5 -53t-60 -126t-27.5 -216.5zM346 1249q51 53 118.5 112.5t112 94.5t48.5 35q18 0 33.5 -32t19.5 -58q-12 -16 -110.5 -91t-176.5 -126q-10 0 -21.5 16.5t-17.5 32.5z" />
<glyph unicode="&#xea;" horiz-adv-x="768" d="M78 457q0 152 22.5 262t56 171.5t86 97.5t97.5 46t104 10q258 0 258 -323q0 -150 -20 -246q-182 -37 -489 -37q0 -143 31.5 -222t79.5 -102.5t128 -23.5q147 0 246 70q14 -37 14 -80q0 -37 -84 -68.5t-194 -31.5q-80 0 -135.5 17t-104.5 65.5t-72.5 146.5t-23.5 248z M178 1227l228 233q12 4 26 4q25 0 41 -18q199 -201 199 -219q0 -12 -27 -26.5t-57 -14.5q-143 150 -158 176q-150 -174 -174 -174q-49 0 -78 39zM195 532q274 0 389 29q8 66 8 137q-2 129 -36 186.5t-122 57.5q-45 0 -80 -14.5t-71.5 -53t-60 -126t-27.5 -216.5z" />
<glyph unicode="&#xeb;" horiz-adv-x="768" d="M78 457q0 152 22.5 262t56 171.5t86 97.5t97.5 46t104 10q258 0 258 -323q0 -150 -20 -246q-182 -37 -489 -37q0 -143 31.5 -222t79.5 -102.5t128 -23.5q147 0 246 70q14 -37 14 -80q0 -37 -84 -68.5t-194 -31.5q-80 0 -135.5 17t-104.5 65.5t-72.5 146.5t-23.5 248z M195 532q274 0 389 29q8 66 8 137q-2 129 -36 186.5t-122 57.5q-45 0 -80 -14.5t-71.5 -53t-60 -126t-27.5 -216.5zM207 1329q0 35 21.5 59.5t58.5 24.5q39 0 60.5 -23.5t21.5 -60.5t-22.5 -60.5t-59.5 -23.5q-80 0 -80 84zM496 1329q0 35 21.5 59.5t57.5 24.5 q39 0 60.5 -23.5t21.5 -60.5t-22.5 -60.5t-59.5 -23.5q-79 0 -79 84z" />
<glyph unicode="&#xec;" horiz-adv-x="350" d="M-59 1411q4 27 19 57.5t34 30.5q6 0 134 -108.5t144 -130.5q-23 -66 -43 -66q-6 0 -140 101.5t-148 115.5zM117 0v969q0 39 21.5 47t94.5 8v-997q0 -20 -15 -23.5t-101 -3.5z" />
<glyph unicode="&#xed;" horiz-adv-x="350" d="M92 1249q51 53 119 112.5t112 94.5t48 35q18 0 33.5 -32t19.5 -58q-12 -16 -110.5 -91t-176.5 -126q-10 0 -21.5 16.5t-17.5 32.5zM117 0v969q0 39 21.5 47t94.5 8v-997q0 -20 -15 -23.5t-101 -3.5z" />
<glyph unicode="&#xee;" horiz-adv-x="350" d="M-76 1227l228 233q12 4 26 4q25 0 41 -18q199 -201 199 -219q0 -12 -26.5 -26.5t-57.5 -14.5q-143 150 -158 176q-150 -174 -174 -174q-49 0 -78 39zM117 0v969q0 39 21.5 47t94.5 8v-997q0 -20 -15 -23.5t-101 -3.5z" />
<glyph unicode="&#xef;" horiz-adv-x="350" d="M-47 1329q0 35 21.5 59.5t58.5 24.5q39 0 60.5 -23.5t21.5 -60.5t-22.5 -60.5t-59.5 -23.5q-80 0 -80 84zM117 0v969q0 39 21.5 47t94.5 8v-997q0 -20 -15 -23.5t-101 -3.5zM242 1329q0 35 21.5 59.5t58.5 24.5q39 0 60 -23.5t21 -60.5t-22.5 -60.5t-58.5 -23.5 q-80 0 -80 84z" />
<glyph unicode="&#xf0;" horiz-adv-x="894" d="M94 526q0 250 92.5 383t257.5 133q141 0 226 -92q-45 184 -158 328l-197 -78q-33 84 -22 96q4 6 12 9l135 53q-45 45 -129 110q29 55 78 56q27 0 47 -21q66 -51 113 -102l158 63q31 -84 22 -96q-4 -4 -12 -8l-99 -39q201 -268 201 -729q0 -135 -13 -234.5t-50 -190.5 t-111 -139t-182 -48q-188 0 -278.5 128.5t-90.5 417.5zM207 510q0 -432 254 -432q80 0 131 41t74.5 120.5t32 160.5t8.5 198q0 94 -11 197q-86 143 -227 143q-127 0 -194.5 -112.5t-67.5 -315.5z" />
<glyph unicode="&#xf1;" horiz-adv-x="821" d="M113 0v973q166 72 331 71q160 0 220.5 -65.5t60.5 -214.5v-737q0 -20 -14.5 -23.5t-100.5 -3.5v733q0 117 -33.5 164t-136.5 47q-127 0 -215 -47v-870q0 -20 -14 -23.5t-98 -3.5zM141 1278q82 139 209 139q47 0 95.5 -52t91.5 -52q47 0 76.5 23.5t44 46t22.5 22.5 q12 0 23.5 -16.5t17.5 -32.5l4 -17q-12 -27 -33.5 -53t-69 -54t-100.5 -28q-66 0 -114 54.5t-78 54.5q-35 0 -61.5 -23.5t-43 -46t-24.5 -22.5q-31 0 -60 57z" />
<glyph unicode="&#xf2;" horiz-adv-x="784" d="M63 510q0 535 343 534q166 0 241.5 -114.5t75.5 -417.5q0 -532 -340 -532q-82 0 -135 18t-98.5 72.5t-66 162t-20.5 277.5zM168 1411q4 27 19.5 57.5t33.5 30.5q6 0 134 -108.5t145 -130.5q-23 -66 -43 -66q-6 0 -140.5 101.5t-148.5 115.5zM184 502q0 -172 26 -267.5 t66.5 -126t110.5 -30.5q215 0 215 438q0 252 -48 340t-153 88q-106 0 -161.5 -99t-55.5 -343z" />
<glyph unicode="&#xf3;" horiz-adv-x="784" d="M63 510q0 535 343 534q166 0 241.5 -114.5t75.5 -417.5q0 -532 -340 -532q-82 0 -135 18t-98.5 72.5t-66 162t-20.5 277.5zM184 502q0 -172 26 -267.5t66.5 -126t110.5 -30.5q215 0 215 438q0 252 -48 340t-153 88q-106 0 -161.5 -99t-55.5 -343zM319 1249 q51 53 119 112.5t112 94.5t48 35q18 0 33.5 -32t19.5 -58q-12 -16 -110.5 -91t-175.5 -126q-10 0 -21.5 16.5t-17.5 32.5z" />
<glyph unicode="&#xf4;" horiz-adv-x="784" d="M63 510q0 535 343 534q166 0 241.5 -114.5t75.5 -417.5q0 -532 -340 -532q-82 0 -135 18t-98.5 72.5t-66 162t-20.5 277.5zM152 1227l227 233q12 4 27 4q25 0 40 -18q199 -201 199 -219q0 -12 -26.5 -26.5t-57.5 -14.5q-143 150 -158 176q-150 -174 -174 -174 q-48 0 -77 39zM184 502q0 -172 26 -267.5t66.5 -126t110.5 -30.5q215 0 215 438q0 252 -48 340t-153 88q-106 0 -161.5 -99t-55.5 -343z" />
<glyph unicode="&#xf5;" horiz-adv-x="784" d="M63 510q0 535 343 534q166 0 241.5 -114.5t75.5 -417.5q0 -532 -340 -532q-82 0 -135 18t-98.5 72.5t-66 162t-20.5 277.5zM109 1278q82 139 208 139q47 0 95.5 -52t91.5 -52q47 0 76.5 23.5t44 46t22.5 22.5q12 0 23.5 -16.5t17.5 -32.5l4 -17q-12 -27 -33.5 -53 t-68.5 -54t-101 -28q-66 0 -113.5 54.5t-78.5 54.5q-35 0 -61.5 -23.5t-43 -46t-24.5 -22.5q-30 0 -59 57zM184 502q0 -172 26 -267.5t66.5 -126t110.5 -30.5q215 0 215 438q0 252 -48 340t-153 88q-106 0 -161.5 -99t-55.5 -343z" />
<glyph unicode="&#xf6;" horiz-adv-x="784" d="M63 510q0 535 343 534q166 0 241.5 -114.5t75.5 -417.5q0 -532 -340 -532q-82 0 -135 18t-98.5 72.5t-66 162t-20.5 277.5zM180 1329q0 35 21.5 59.5t58.5 24.5q39 0 60.5 -23.5t21.5 -60.5t-22.5 -60.5t-59.5 -23.5q-80 0 -80 84zM184 502q0 -172 26 -267.5t66.5 -126 t110.5 -30.5q215 0 215 438q0 252 -48 340t-153 88q-106 0 -161.5 -99t-55.5 -343zM469 1329q0 35 21.5 59.5t58.5 24.5q39 0 60.5 -23.5t21.5 -60.5t-22.5 -60.5t-59.5 -23.5q-80 0 -80 84z" />
<glyph unicode="&#xf7;" d="M86 526v49q0 14 3 30t8 20t16 4h690q0 -63 -4 -83t-25 -20h-688zM358 287q0 37 21.5 61.5t58.5 24.5q82 0 82 -86q0 -37 -22.5 -60.5t-59.5 -23.5q-80 0 -80 84zM358 856q0 35 21.5 59.5t58.5 24.5q82 0 82 -84q0 -37 -22.5 -61.5t-59.5 -24.5q-80 0 -80 86z" />
<glyph unicode="&#xf8;" horiz-adv-x="868" d="M57 4q0 10 95 166q-37 117 -37 340q0 535 338 534q156 0 227 -94q61 106 74 119q68 -16 67 -49q0 -16 -92 -164q43 -123 43 -344q0 -532 -330 -532q-178 0 -245 98q-53 -92 -74 -123q-18 2 -42 15.5t-24 33.5zM233 502q0 -137 17 -232l348 592q-43 82 -147.5 82t-161 -99 t-56.5 -343zM279 174q45 -96 157 -96q215 0 215 438q0 150 -20 252q-176 -303 -352 -594z" />
<glyph unicode="&#xf9;" horiz-adv-x="851" d="M119 346v649q0 23 14 26t100 3v-692q0 -145 40 -198.5t157 -53.5q111 0 188 47v868q0 20 15.5 24.5t97.5 4.5v-973q-137 -72 -311 -71.5t-237.5 83t-63.5 283.5zM197 1411q4 27 19 57.5t34 30.5q6 0 134 -108.5t144 -130.5q-23 -66 -43 -66q-6 0 -140 101.5t-148 115.5z " />
<glyph unicode="&#xfa;" horiz-adv-x="851" d="M119 346v649q0 23 14 26t100 3v-692q0 -145 40 -198.5t157 -53.5q111 0 188 47v868q0 20 15.5 24.5t97.5 4.5v-973q-137 -72 -311 -71.5t-237.5 83t-63.5 283.5zM348 1249q51 53 119 112.5t112 94.5t48 35q18 0 33.5 -32t19.5 -58q-12 -16 -110.5 -91t-176.5 -126 q-10 0 -21.5 16.5t-17.5 32.5z" />
<glyph unicode="&#xfb;" horiz-adv-x="851" d="M119 346v649q0 23 14 26t100 3v-692q0 -145 40 -198.5t157 -53.5q111 0 188 47v868q0 20 15.5 24.5t97.5 4.5v-973q-137 -72 -311 -71.5t-237.5 83t-63.5 283.5zM180 1227l228 233q12 4 26 4q25 0 41 -18q199 -201 199 -219q0 -12 -26.5 -26.5t-57.5 -14.5 q-143 150 -158 176q-150 -174 -174 -174q-49 0 -78 39z" />
<glyph unicode="&#xfc;" horiz-adv-x="851" d="M119 346v649q0 23 14 26t100 3v-692q0 -145 40 -198.5t157 -53.5q111 0 188 47v868q0 20 15.5 24.5t97.5 4.5v-973q-137 -72 -311 -71.5t-237.5 83t-63.5 283.5zM209 1329q0 35 21.5 59.5t58.5 24.5q39 0 60.5 -23.5t21.5 -60.5t-22.5 -60.5t-59.5 -23.5q-80 0 -80 84z M498 1329q0 35 21.5 59.5t58.5 24.5q39 0 60 -23.5t21 -60.5t-22.5 -60.5t-58.5 -23.5q-80 0 -80 84z" />
<glyph unicode="&#xfd;" horiz-adv-x="757" d="M2 -334q0 37 21 66q57 -29 124 -29q129 0 187 264l-266 1022q-6 27 8 31t100 4l154 -602q10 -43 59 -318q18 141 55 320l138 565q4 27 19 31t101 4l-270 -1087q-45 -182 -110.5 -257t-169.5 -75q-150 0 -150 61zM309 1249q51 53 119 112.5t112 94.5t48 35q18 0 33.5 -32 t19.5 -58q-12 -16 -110.5 -91t-176.5 -126q-10 0 -21 16.5t-18 32.5z" />
<glyph unicode="&#xfe;" horiz-adv-x="819" d="M117 -365v1815q0 39 19.5 47t92.5 8v-489q80 27 183 26q168 0 253 -97t85 -343q0 -156 -25 -273.5t-61.5 -181t-87 -103.5t-90.5 -51t-83 -11q-115 0 -174 63v-446q-25 -8 -65 -9q-29 0 -38 8t-9 37zM229 158q47 -78 144 -78q31 0 59.5 10t65.5 43t64.5 85t46 148.5 t18.5 223.5q0 205 -53.5 278.5t-163.5 73.5q-104 0 -181 -53v-731z" />
<glyph unicode="&#xff;" horiz-adv-x="757" d="M2 -334q0 37 21 66q57 -29 124 -29q129 0 187 264l-266 1022q-6 27 8 31t100 4l154 -602q10 -43 59 -318q18 141 55 320l138 565q4 27 19 31t101 4l-270 -1087q-45 -182 -110.5 -257t-169.5 -75q-150 0 -150 61zM170 1329q0 35 21.5 59.5t58.5 24.5q39 0 60.5 -23.5 t21.5 -60.5t-22.5 -60.5t-59.5 -23.5q-80 0 -80 84zM459 1329q0 35 21.5 59.5t58.5 24.5q39 0 60.5 -23.5t21.5 -60.5t-23 -60.5t-59 -23.5q-80 0 -80 84z" />
<glyph unicode="&#x152;" horiz-adv-x="1284" d="M74 725q0 389 94 559t295 170q180 0 262 -133v84q0 29 27 29h477q0 -72 -3 -88.5t-20 -16.5h-383v-493h359q0 -70 -3 -87.5t-22 -17.5h-334v-627h404q0 -74 -3 -89t-24 -15h-475v133q-84 -152 -279 -151q-203 0 -287.5 160.5t-84.5 582.5zM199 692q0 -326 56 -464 t194 -138q139 0 194 144.5t55 496.5q0 344 -50 479.5t-183 135.5q-139 0 -202.5 -151t-63.5 -503z" />
<glyph unicode="&#x153;" horiz-adv-x="1316" d="M76 510q0 535 340 534q203 0 270 -170q49 104 124 137t177 33q258 0 258 -317q0 -156 -20 -252q-182 -37 -490 -37q0 -115 16.5 -187.5t50.5 -106t69.5 -44t95.5 -10.5q156 0 254 70q14 -37 14 -105q0 -12 -37 -29.5t-104.5 -31.5t-137.5 -14q-109 0 -179 32.5 t-109 126.5q-84 -160 -262 -159q-86 0 -141.5 18t-101.5 72.5t-66.5 162t-20.5 277.5zM197 502q0 -172 25.5 -267.5t66.5 -126t110 -30.5q215 0 215 438q0 252 -48 339t-152 87q-106 0 -161.5 -98t-55.5 -342zM735 532q276 0 391 29q8 66 9 144q-2 129 -36 183t-122 54 q-47 0 -81 -12t-72 -51t-61.5 -126.5t-27.5 -220.5z" />
<glyph unicode="&#x178;" horiz-adv-x="739" d="M12 1415q-4 14 13 17q16 2 114 2l99 -293q39 -106 86 -262t53 -193q16 109 139 457l90 270q4 14 20.5 17.5t102.5 3.5l-299 -848v-559q0 -20 -13.5 -23.5t-99.5 -3.5v582zM156 1739q0 35 21.5 59.5t58.5 24.5q39 0 60 -23.5t21 -60.5t-22.5 -60.5t-58.5 -23.5 q-80 0 -80 84zM444 1739q0 35 21.5 59.5t58.5 24.5q39 0 60.5 -23.5t21.5 -60.5t-22.5 -60.5t-59.5 -23.5q-80 0 -80 84z" />
<glyph unicode="&#x2c6;" horiz-adv-x="493" d="M0 1227l227 233q12 4 27 4q25 0 41 -18q199 -201 199 -219q0 -12 -27 -26.5t-57 -14.5q-143 150 -158 176q-150 -174 -174 -174q-49 0 -78 39z" />
<glyph unicode="&#x2dc;" horiz-adv-x="583" d="M0 1278q82 139 209 139q47 0 95 -52t91 -52q47 0 77 23.5t44 46t23 22.5q12 0 23 -16.5t16 -32.5l6 -17q-12 -27 -34 -53t-69 -54t-100 -28q-66 0 -114 54.5t-79 54.5q-35 0 -61.5 -23.5t-42.5 -46t-25 -22.5q-30 0 -59 57z" />
<glyph unicode="&#x2000;" horiz-adv-x="976" />
<glyph unicode="&#x2001;" horiz-adv-x="1955" />
<glyph unicode="&#x2002;" horiz-adv-x="976" />
<glyph unicode="&#x2003;" horiz-adv-x="1955" />
<glyph unicode="&#x2004;" horiz-adv-x="651" />
<glyph unicode="&#x2005;" horiz-adv-x="487" />
<glyph unicode="&#x2006;" horiz-adv-x="325" />
<glyph unicode="&#x2007;" horiz-adv-x="325" />
<glyph unicode="&#x2008;" horiz-adv-x="243" />
<glyph unicode="&#x2009;" horiz-adv-x="391" />
<glyph unicode="&#x200a;" horiz-adv-x="108" />
<glyph unicode="&#x2010;" horiz-adv-x="593" d="M88 526v49q0 14 3 30t8 20t16 4h391q0 -63 -4 -83t-25 -20h-389z" />
<glyph unicode="&#x2011;" horiz-adv-x="593" d="M88 526v49q0 14 3 30t8 20t16 4h391q0 -63 -4 -83t-25 -20h-389z" />
<glyph unicode="&#x2012;" horiz-adv-x="593" d="M88 526v49q0 14 3 30t8 20t16 4h391q0 -63 -4 -83t-25 -20h-389z" />
<glyph unicode="&#x2013;" horiz-adv-x="892" d="M88 526v49q0 14 3 30t8 20t16 4h690q0 -63 -4 -83t-25 -20h-688z" />
<glyph unicode="&#x2014;" horiz-adv-x="1433" d="M12 526v49q0 14 3 30t8.5 20t15.5 4h1382q0 -63 -4 -83t-24 -20h-1381z" />
<glyph unicode="&#x2018;" horiz-adv-x="325" d="M76 1284q0 92 49 214t76 122q41 0 47 -37q-43 -86 -47 -231q41 -25 41 -82q0 -37 -22.5 -60.5t-57.5 -23.5q-86 0 -86 98z" />
<glyph unicode="&#x2019;" horiz-adv-x="325" d="M78 1212q43 88 47 232q-41 25 -41 82q0 37 22.5 60.5t59.5 23.5q84 0 84 -99q0 -92 -49 -213.5t-76 -121.5q-39 -1 -47 36z" />
<glyph unicode="&#x201a;" horiz-adv-x="321" d="M78 -193q43 90 47 232q-41 25 -41 82q0 37 22.5 60.5t59.5 23.5q84 0 84 -99q0 -90 -49 -212.5t-76 -122.5q-39 -1 -47 36z" />
<glyph unicode="&#x201c;" horiz-adv-x="610" d="M76 1284q0 92 49 214t76 122q41 0 47 -37q-43 -86 -47 -231q41 -25 41 -82q0 -37 -22.5 -60.5t-57.5 -23.5q-86 0 -86 98zM360 1284q0 92 48.5 214t76.5 122q39 0 47 -37q-43 -86 -47 -231q39 -25 39 -82q0 -37 -21.5 -60.5t-58.5 -23.5q-84 0 -84 98z" />
<glyph unicode="&#x201d;" horiz-adv-x="610" d="M78 1212q43 88 47 232q-41 25 -41 82q0 37 22.5 60.5t59.5 23.5q84 0 84 -99q0 -92 -49 -213.5t-76 -121.5q-39 -1 -47 36zM360 1212q45 86 50 232q-41 25 -41 82q0 35 22.5 59.5t57.5 24.5q84 0 83 -99q0 -92 -48 -213.5t-74 -121.5q-42 -1 -50 36z" />
<glyph unicode="&#x201e;" horiz-adv-x="606" d="M78 -193q43 90 47 232q-41 25 -41 82q0 37 22.5 60.5t59.5 23.5q84 0 84 -99q0 -90 -49 -212.5t-76 -122.5q-39 -1 -47 36zM360 -193q45 88 50 232q-41 25 -41 82q0 37 22.5 60.5t57.5 23.5q84 0 83 -99q0 -90 -48 -212.5t-74 -122.5q-42 -1 -50 36z" />
<glyph unicode="&#x2022;" horiz-adv-x="438" d="M104 578q0 55 34 94t89 39q61 0 95 -37t34 -96q0 -57 -34.5 -95.5t-94.5 -38.5q-123 1 -123 134z" />
<glyph unicode="&#x2026;" horiz-adv-x="999" d="M90 82q0 39 23.5 65.5t62.5 26.5q90 0 90 -92q0 -39 -24.5 -65.5t-65.5 -26.5q-86 0 -86 92zM412 82q0 39 23.5 65.5t62.5 26.5q90 0 90 -92q0 -39 -24.5 -65.5t-65.5 -26.5q-86 0 -86 92zM733 82q0 39 23.5 65.5t62.5 26.5q90 0 90 -92q0 -39 -24.5 -65.5t-65.5 -26.5 q-86 0 -86 92z" />
<glyph unicode="&#x202f;" horiz-adv-x="391" />
<glyph unicode="&#x2039;" horiz-adv-x="524" d="M57 512q0 53 305 512q18 0 36 -14.5t24 -28.5l8 -14q0 -25 -65.5 -138.5t-131.5 -214.5l-67 -102q272 -395 272 -442q-27 -70 -65 -70q-316 455 -316 512z" />
<glyph unicode="&#x203a;" horiz-adv-x="524" d="M88 67.5q0 22.5 67.5 133t135.5 211.5l69 100q-266 399 -266 455q0 41 70 57q303 -459 303 -512q0 -25 -78 -153t-156 -244l-79 -115q-8 2 -18.5 6t-29 21.5t-18.5 40z" />
<glyph unicode="&#x205f;" horiz-adv-x="487" />
<glyph unicode="&#x20ac;" d="M45 430q0 55 9 74.5t38 19.5h135v29q0 94 6 170h-188q0 55 9 74.5t38 19.5h152q20 131 60 220t94.5 131t106.5 57.5t116 15.5q61 0 108 -16.5t66.5 -33.5t19.5 -30q0 -53 -22 -76q-16 14 -60.5 32t-89.5 18t-82 -10.5t-78 -41t-71.5 -98t-46.5 -168.5h333q0 -55 -9 -74.5 t-38 -19.5h-299q-6 -76 -6 -170v-29h277q0 -55 -9.5 -74.5t-38.5 -19.5h-225q8 -111 30.5 -182.5t59.5 -104t72 -43t86 -10.5q125 0 199 74q18 -37 18 -76q0 -31 -72.5 -69.5t-162.5 -38.5q-74 0 -126.5 15t-102.5 59t-80.5 138.5t-39.5 237.5h-186z" />
<glyph unicode="&#x2122;" horiz-adv-x="1085" d="M70 1368v45l20 21h414v-45l-19 -21h-155v-565q0 -14 -9.5 -16.5t-60.5 -2.5v584h-190zM553 784v629q0 20 20 21h43l103 -285l49 -125q35 102 41 123l98 266q6 20 21 21h49v-629q0 -14 -9.5 -17.5t-60.5 -3.5l2 234q0 35 6 237q-10 -29 -23 -65.5t-21.5 -61t-10.5 -28.5 l-67 -176q-4 -10 -11 -11h-43l-71 187l-56 151q8 -205 9 -235l2 -211q0 -14 -9.5 -17.5t-60.5 -3.5z" />
<glyph unicode="&#xe000;" horiz-adv-x="1025" d="M0 1025h1025v-1025h-1025v1025z" />
<glyph unicode="&#xfb01;" horiz-adv-x="813" d="M23 926q0 70 4 84t28 14h123v129q0 96 22.5 164.5t54.5 105.5t82 58.5t91 26.5t96 5q209 0 209 -73q0 -31 -14 -68q-84 39 -193 39q-51 0 -85.5 -7t-72.5 -31.5t-57.5 -80t-19.5 -141.5v-127h172q0 -70 -4 -84t-25 -14h-143v-899q0 -27 -29 -27h-84v926h-155zM584 0v969 q0 39 20.5 47t93.5 8v-997q0 -20 -14 -23.5t-100 -3.5z" />
<glyph unicode="&#xfb02;" horiz-adv-x="833" d="M20 926q0 70 4.5 84t28.5 14h123v129q0 117 30 194.5t82 110.5t95 43t98 10q131 0 236 -57v-1427q0 -27 -29 -27h-84v1397q-55 18 -117 18q-39 0 -64.5 -6t-61 -27.5t-54 -76t-18.5 -140.5v-141h205q0 -70 -4.5 -84t-24.5 -14h-176v-899q0 -27 -27 -27h-86v926h-156z" />
<glyph unicode="&#xfb03;" horiz-adv-x="1259" d="M29 926q0 70 4 84t28 14h123v152q0 109 33 180t89 101t100.5 39t97.5 9q115 0 213 -65q80 74 252 73q207 0 207 -73q0 -37 -13 -68q-84 39 -192 39q-51 0 -86 -7t-73 -31.5t-57.5 -80t-19.5 -141.5v-127h172q0 -70 -4 -84t-24 -14h-144v-899q0 -27 -28 -27h-84v926h-326 v-899q0 -27 -27 -27h-86v926h-155zM297 1024h326v129q0 129 36 207q-63 45 -161 45q-35 0 -61.5 -6t-62.5 -25.5t-56.5 -69t-20.5 -124.5v-156zM1028 0v969q0 39 20.5 47t92.5 8v-997q0 -20 -13.5 -23.5t-99.5 -3.5z" />
<glyph unicode="&#xfb04;" horiz-adv-x="1280" d="M29 926q0 70 4 84t28 14h123v152q0 109 33 180t89 101t100.5 39t97.5 9q109 0 207 -61q72 70 217 69q137 0 233 -55l-2 -2h2v-1429q0 -20 -13 -23.5t-97 -3.5v1391q-55 18 -117 18q-45 0 -72.5 -5t-60.5 -26.5t-49.5 -74t-16.5 -134.5v-145h172q0 -70 -4 -84t-24 -14 h-144v-899q0 -27 -28 -27h-84v926h-326v-899q0 -27 -27 -27h-86v926h-155zM297 1024h326v129q0 127 34 207q-63 45 -159 45q-35 0 -61.5 -6t-62.5 -25.5t-56.5 -69t-20.5 -124.5v-156z" />
</font>
</defs>
</svg>
