<?xml version="1.0" standalone="no"?>
<!DOCTYPE svg PUBLIC "-//W3C//DTD SVG 1.1//EN" "http://www.w3.org/Graphics/SVG/1.1/DTD/svg11.dtd" >
<svg xmlns="http://www.w3.org/2000/svg">
<metadata>
This is a custom SVG webfont generated by Font Squirrel.
Copyright   : Copyright c 2010 Yanone httpyanonedetypedesign All rights reservedThis Font Software is licensed under the SIL Open Font License Version 11This license is available with a FAQ at httpscriptssilorgOFL
Designer    : Yanone
Foundry     : Yanone
Foundry URL : httpyanonedetypedesign
</metadata>
<defs>
<font id="YanoneKaffeesatzRegular" horiz-adv-x="854" >
<font-face units-per-em="2048" ascent="1638" descent="-410" />
<missing-glyph horiz-adv-x="321" />
<glyph unicode=" "  horiz-adv-x="321" />
<glyph unicode="&#x09;" horiz-adv-x="321" />
<glyph unicode="&#xa0;" horiz-adv-x="321" />
<glyph unicode="!" horiz-adv-x="399" d="M86 102q0 49 30.5 84t82.5 35q115 0 114 -119q0 -49 -31.5 -82.5t-82.5 -33.5q-113 -1 -113 116zM92 1397q-2 35 37 42t190 7l-32 -930q-2 -53 -34 -65.5t-132 -12.5z" />
<glyph unicode="&#x22;" horiz-adv-x="540" d="M70 1602q14 8 63 8q63 0 94 -6q0 -86 -16 -241t-27 -163l-92 -6q-42 396 -22 408zM319 1602q14 8 66 8q63 0 94 -6q0 -86 -16.5 -241t-26.5 -163l-92 -6q-6 31 -21.5 215.5t-3.5 192.5z" />
<glyph unicode="#" d="M55 389q0 86 5.5 108.5t29.5 22.5h86l10 217h-131q0 86 5.5 108.5t29.5 22.5h105l6 129q2 23 30.5 28t116.5 5l-8 -162h195l6 129q2 23 30.5 28t116.5 5l-8 -162h119q0 -131 -33 -131h-94l-10 -217h137q0 -131 -33 -131h-113l-6 -137q-2 -23 -30.5 -28t-116.5 -5l8 170 h-195l-6 -137q-2 -23 -30.5 -28t-116.5 -5l8 170h-113zM322 520h194l10 217h-194z" />
<glyph unicode="$" d="M106 76q0 18 13.5 65t32.5 68q74 -59 217 -59q190 0 190 174q0 57 -24.5 102t-88.5 113l-229 233q-109 115 -108 227q0 109 67.5 176.5t192.5 84.5v182q0 41 35.5 54t115.5 13v-247q72 -4 122 -18.5t69.5 -29t19.5 -24.5q0 -68 -41 -117q-61 43 -201 43q-199 0 -198 -115 q0 -70 88 -163l248 -248q117 -117 116 -268q0 -283 -258 -328v-178q0 -41 -33.5 -53.5t-117.5 -12.5v236q-74 4 -128 20.5t-77 35t-23 34.5z" />
<glyph unicode="%" horiz-adv-x="1415" d="M90 1075q0 375 291 375q143 0 207.5 -81t64.5 -292q0 -383 -284 -383q-98 0 -154.5 28t-90.5 112.5t-34 240.5zM238 47l825 1405q94 -31 94 -72q0 -12 -203.5 -361t-408.5 -691l-205 -344q-102 26 -102 63zM250 1071q0 -147 28.5 -197.5t94.5 -50.5q127 0 127 252 q0 145 -28 195.5t-91 50.5q-66 0 -98.5 -55.5t-32.5 -194.5zM762 362q0 375 291 375q143 0 207.5 -81t64.5 -291q0 -383 -285 -383q-98 0 -154.5 27.5t-90 112t-33.5 240.5zM920 354q0 -147 28.5 -197.5t93.5 -50.5q129 0 129 252q0 145 -27.5 195.5t-93 50.5t-98 -54.5 t-32.5 -195.5z" />
<glyph unicode="&#x26;" horiz-adv-x="1028" d="M53 348q0 121 64.5 221.5t165.5 163.5q-160 274 -160 430q0 137 90 210t252 73q133 0 220 -28.5t87 -67.5q0 -72 -41 -123q-104 72 -246 71q-90 0 -138 -30.5t-48 -124.5q0 -104 120 -315.5t281 -415.5q16 82 17 184q0 270 -123 420q84 16 235 16q88 0 158 -6 q6 -12 6 -61q0 -37 -17.5 -55.5t-68.5 -18.5h-100q72 -129 72 -316q0 -170 -52 -313q109 -123 170 -149q-4 -49 -40.5 -91t-67.5 -42q-33 0 -150 129q-115 -129 -305 -129q-381 -1 -381 368zM225 344q0 -90 47 -148.5t152 -58.5q133 0 207 99q-147 178 -275 376 q-131 -96 -131 -268z" />
<glyph unicode="'" horiz-adv-x="288" d="M70 1602q14 8 63 8q63 0 94 -6q0 -86 -16 -241t-27 -163l-92 -6q-42 396 -22 408z" />
<glyph unicode="(" horiz-adv-x="598" d="M133 655q0 193 32 365t76 281.5t93 190.5t83 117t46 36q39 0 58.5 -23t33.5 -84q-252 -332 -252 -876q-2 -324 77 -577t175 -361q-23 -123 -92 -123q-14 0 -49 37.5t-83 123.5t-92 203t-75 300t-31 390z" />
<glyph unicode=")" horiz-adv-x="598" d="M43 -276q102 137 178 373.5t74 564.5q0 285 -71.5 516t-180.5 360q14 61 33.5 84t58.5 23q12 0 46 -34t83 -115t93 -189.5t76 -281.5t32 -370q0 -195 -31 -374t-75 -297.5t-92 -208.5t-84 -132t-48 -42q-69 0 -92 123z" />
<glyph unicode="*" horiz-adv-x="962" d="M33 1030q-2 70 37 111t71 24l267 -168q2 -35 -11.5 -50t-38.5 -7zM135 614l248 252q37 37 76 -16l-180 -320q-33 -33 -75 -1t-69 85zM406 1366q-2 23 15 34t46 11q53 0 102 -25l-41 -323q-4 -25 -17 -32t-58 1zM508 860q8 14 47 29l236 -277q27 -33 -19.5 -67.5 t-101.5 -42.5l-160 323q-10 21 -2 35zM573 932q-43 57 5 82l303 164q49 -39 49 -111q0 -47 -31 -57z" />
<glyph unicode="+" d="M70 504q0 88 5 116.5t29 28.5h252v252q0 25 29 30t117 5v-287h284q0 -88 -5 -116.5t-27 -28.5h-252v-252q0 -23 -29 -28t-117 -5v285h-286z" />
<glyph unicode="," horiz-adv-x="374" d="M78 -164q51 86 57 176q-47 29 -47 101q0 45 29.5 75.5t75.5 30.5q113 0 112 -123q0 -100 -63.5 -203.5t-98.5 -103.5q-55 0 -65 47z" />
<glyph unicode="-" horiz-adv-x="569" d="M76 504q0 88 5 116.5t28 28.5h385q0 -88 -5.5 -116.5t-29.5 -28.5h-383z" />
<glyph unicode="." horiz-adv-x="374" d="M76 104q0 49 30.5 84t83.5 35q115 0 115 -119q0 -51 -30.5 -83.5t-84.5 -32.5q-114 -1 -114 116z" />
<glyph unicode="/" horiz-adv-x="686" d="M20 -41l461 1563q6 23 18.5 31t45.5 11t121 3l-461 -1567q-8 -29 -35 -35t-150 -6z" />
<glyph unicode="0" d="M59 606q0 311 89.5 467t284 156t279.5 -140.5t85 -433.5q0 -346 -84 -509.5t-291 -163.5q-203 0 -283 151t-80 473zM238 594q0 -254 42 -357.5t146 -103.5t150.5 124t46.5 400q0 219 -40 321.5t-143 102.5q-111 0 -156.5 -121.5t-45.5 -365.5z" />
<glyph unicode="1" d="M57 115q0 43 295 43l23 899q-31 0 -89.5 -9.5t-101.5 -19.5l-43 -8q-25 49 -24 108q0 20 164.5 60.5t224.5 40.5q33 0 47 -10l-27 -1061h152l119 6q0 -53 -1 -74.5t-4.5 -47.5t-10.5 -34t-19 -8h-701q-4 66 -4 115z" />
<glyph unicode="2" d="M59 51q0 41 9.5 66.5t40.5 79.5q57 94 147 206.5t155.5 188.5t116 167t50.5 169q0 141 -158 141q-180 0 -299 -72q-20 47 -21 123q0 39 109.5 74t253.5 35q170 0 236.5 -68.5t66.5 -210.5q0 -98 -50 -202.5t-115.5 -182.5t-164 -196.5t-157.5 -210.5h274l242 14 q0 -106 -5.5 -139t-29.5 -33h-694q-7 24 -7 51z" />
<glyph unicode="3" d="M86 1118q0 43 99.5 77t254.5 34q285 0 285 -244q0 -209 -223 -369q121 -12 195.5 -86.5t74.5 -218.5q0 -248 -128 -382t-335 -134q-109 0 -164 29t-55 72t23 122q74 -63 200 -63q133 0 207 97.5t74 254.5q0 211 -326 211l-4 107q129 61 201 143t72 168q0 133 -148 133 q-162 0 -280 -72v-2q-23 45 -23 123z" />
<glyph unicode="4" d="M57 414q0 84 159 395t267 403q35 29 76 29q53 0 94 -24l-6 -795l152 6q8 -16 8 -59q-4 -102 -55 -103h-105v-213q0 -41 -20.5 -47t-145.5 -6v266h-370q-54 52 -54 148zM201 422h280l23 590q-78 -90 -174 -273.5t-129 -316.5z" />
<glyph unicode="5" d="M70 -121q0 82 18 135q70 -63 199 -63q158 0 235.5 118.5t77.5 292.5q0 166 -80 227.5t-237 61.5q-100 0 -197 -26l59 604h627q0 -96 -15.5 -123t-72.5 -27l-397 8l-31 -307q61 10 119 11q401 6 401 -394q0 -283 -117.5 -442.5t-355.5 -159.5q-76 0 -132 15.5t-78.5 34 t-22.5 34.5z" />
<glyph unicode="6" d="M63 631q0 807 465 807q223 0 224 -70q0 -68 -17 -119q-86 31 -192 31q-299 0 -320 -528q92 147 281 147q137 0 217 -96t80 -301q0 -518 -389 -518q-92 0 -157 30.5t-102.5 80.5t-57 138.5t-26 176.5t-6.5 221zM223 582q-4 -236 44 -343.5t153 -107.5q102 0 159.5 94 t57.5 242q0 279 -182 278q-135 0 -232 -151v-12z" />
<glyph unicode="7" d="M90 1229h737q-207 -406 -330.5 -745t-162.5 -664q-98 0 -134 8t-36 37q39 303 172 658.5t264 561.5q-117 -6 -463 -6q-47 0 -47 150z" />
<glyph unicode="8" d="M63 377q0 127 65 229.5t169 163.5q-98 66 -133 109q-86 82 -86 215q0 168 100.5 260t249.5 92q365 0 365 -332q0 -207 -222 -358q78 -61 109 -94q121 -125 121 -289q0 -170 -92.5 -279.5t-264.5 -109.5q-195 0 -288 108.5t-93 284.5zM219 385q0 -111 57.5 -176.5 t157.5 -65.5q94 0 149.5 62.5t55.5 171.5q0 127 -92 207q-39 39 -117 94q-211 -107 -211 -293zM246 1104q0 -100 80 -166q33 -35 123 -96q190 123 190 266q0 90 -54.5 135t-133.5 45q-90 0 -147.5 -46t-57.5 -138z" />
<glyph unicode="9" d="M55 733q0 514 389 514q213 0 280 -133t73 -506q-4 -420 -127 -620.5t-387 -200.5q-184 0 -185 68q0 45 15 112q70 -20 149 -20q184 0 268 135t101 383q-96 -143 -277 -143q-133 0 -216 108t-83 303zM219 754q0 -133 49 -206t135 -73q135 0 234 148v12q0 248 -38 356.5 t-153 108.5q-106 0 -166.5 -88t-60.5 -258z" />
<glyph unicode=":" horiz-adv-x="374" d="M76 104q0 49 31.5 84t82.5 35q115 0 115 -119q0 -51 -30.5 -83.5t-84.5 -32.5q-114 -1 -114 116zM76 791q0 49 31.5 83.5t82.5 34.5q115 0 115 -118q0 -51 -30.5 -84t-84.5 -33q-114 0 -114 117z" />
<glyph unicode=";" horiz-adv-x="374" d="M70 -164q51 92 57 176q-47 29 -47 101q0 45 28.5 75.5t73.5 30.5q113 0 113 -123q0 -100 -62.5 -203.5t-97.5 -103.5q-55 0 -65 47zM72 791q0 49 31.5 83.5t82.5 34.5q115 0 115 -118q0 -51 -30.5 -84t-84.5 -33q-114 0 -114 117z" />
<glyph unicode="&#x3c;" horiz-adv-x="819" d="M80 528q0 63 53 90l541 265q55 -53 59 -113q0 -35 -31 -49l-405 -199l440 -196q-2 -51 -25.5 -91t-47.5 -40q-18 0 -58 16l-500 221q-26 47 -26 96z" />
<glyph unicode="=" d="M70 313q0 88 5 117t29 29h682q0 -88 -5 -117t-27 -29h-684zM70 694q0 88 5 117t29 29h682q0 -88 -5 -117t-27 -29h-684z" />
<glyph unicode="&#x3e;" horiz-adv-x="819" d="M88 731q2 51 26.5 90t49.5 39q20 0 55 -14l500 -221q29 -45 29 -97q0 -61 -56 -90l-540 -264q-53 53 -58 111q0 37 29 51l407 199z" />
<glyph unicode="?" horiz-adv-x="604" d="M39 1366q0 35 81 61.5t175 26.5q133 0 209 -72.5t76 -212.5q0 -111 -36 -195.5t-104.5 -173.5t-87.5 -122q-25 -43 -24 -96q0 -27 6 -62t9 -48t-3 -28q-12 -16 -63.5 -20t-86.5 4q-31 61 -30 145q0 82 37 148q29 55 88 136t87.5 141.5t28.5 129.5q0 158 -168 158 q-94 0 -170 -51q-24 70 -24 131zM152 104q0 49 31.5 84t82.5 35q115 0 115 -119q0 -51 -31 -83.5t-84 -32.5q-114 -1 -114 116z" />
<glyph unicode="@" horiz-adv-x="1511" d="M96 541q0 438 188.5 647t522.5 209q309 0 460.5 -152.5t151.5 -509.5q0 -731 -329 -731q-70 0 -125 47q-61 -49 -224 -49q-127 -2 -192.5 60.5t-63.5 254.5q6 334 260 334q78 0 119 -22q4 72 4 125q2 66 -28.5 92t-94.5 26q-111 0 -204 -51q-18 35 -19 97q2 25 19 40 q92 53 260 54q117 0 172 -53.5t53 -184.5l-10 -412q-2 -113 -10 -202q31 -12 65 -13q31 0 60.5 29t56 89.5t43 171t16.5 255.5q0 311 -96 434t-348 123q-182 0 -296 -64.5t-177.5 -228t-63.5 -438.5q0 -182 20.5 -313t58.5 -215t100.5 -132t135 -66.5t173.5 -18.5 q270 0 477 88q45 -59 45 -119q0 -31 -59.5 -60.5t-179 -50t-269.5 -20.5q-127 0 -216 15.5t-181 70.5t-147.5 153.5t-91.5 272.5t-36 418zM643 311q-2 -106 24.5 -145t86.5 -39q100 0 102 109l8 292q-43 6 -71 7q-72 0 -110 -49.5t-40 -174.5z" />
<glyph unicode="A" horiz-adv-x="894" d="M10 2l365 1409q6 29 63 29q47 0 78 -6l367 -1403q4 -18 -10.5 -26.5t-61.5 -8.5q-57 0 -98 4l-88 365h-353l-79 -336q-4 -12 -9.5 -18.5t-21 -10.5t-47.5 -4q-46 0 -105 6zM307 516h283l-70 291q-53 221 -71 393q-20 -166 -72 -393z" />
<glyph unicode="B" horiz-adv-x="770" d="M88 0v1395q0 39 55 39h203q344 0 344 -318q0 -154 -59.5 -236.5t-136.5 -93.5q41 -2 77.5 -15t76.5 -43t63.5 -92.5t23.5 -148.5q0 -246 -108.5 -366.5t-280.5 -120.5h-258zM258 145h92q84 0 137.5 81t53.5 247q0 145 -46 188.5t-143 43.5h-94v-560zM258 848h100 q68 0 109 59.5t41 175.5q0 203 -152 203h-98v-438z" />
<glyph unicode="C" horiz-adv-x="694" d="M63 657q0 203 26 352.5t63.5 233.5t94 135.5t108 66.5t112.5 15q193 0 192 -112q0 -55 -26 -101q-57 51 -133 51q-43 0 -77 -13t-70 -54t-59.5 -108.5t-38.5 -184.5t-15 -272q0 -201 27.5 -317t69.5 -153.5t107 -37.5q113 0 189 63q25 -53 24 -100q0 -61 -71.5 -104.5 t-182.5 -43.5q-63 0 -110 13.5t-92 56.5t-74 115.5t-46.5 198.5t-17.5 300z" />
<glyph unicode="D" horiz-adv-x="804" d="M90 0v1395q0 39 55 39h199q139 0 224 -56.5t131 -199t46 -387.5q0 -432 -100 -611.5t-299 -179.5h-256zM256 158h92q45 0 78 23.5t64.5 87t48 199.5t16.5 339q0 272 -48 372.5t-157 100.5h-94v-1122z" />
<glyph unicode="E" horiz-adv-x="655" d="M90 0v1399q2 35 35 35h489q0 -104 -4 -127t-26 -23h-326v-428h307q0 -102 -4 -128t-26 -26h-277v-552h350q0 -106 -4 -128t-29 -22h-485z" />
<glyph unicode="F" horiz-adv-x="638" d="M90 0v1399q2 35 35 35h489q0 -102 -4 -123t-26 -21h-326v-434h307q0 -100 -4 -125.5t-26 -25.5h-277v-672q2 -33 -33 -33h-135z" />
<glyph unicode="G" horiz-adv-x="788" d="M55 684q0 236 29 390.5t90.5 235.5t136 111.5t183.5 30.5q98 0 158.5 -30.5t60.5 -71.5q0 -47 -23 -105q-59 49 -162 49q-160 0 -227.5 -131t-67.5 -469q0 -233 27 -357t69 -159t115 -35q88 0 119 50v507h-149v107q0 35 39 35h268l-2 -770q-104 -90 -279 -90 q-145 0 -224 55t-120 208.5t-41 438.5z" />
<glyph unicode="H" horiz-adv-x="837" d="M90 0v1399q0 27 20.5 31t145.5 4v-584h326v549q0 27 19.5 31t146.5 4v-1401q0 -25 -20.5 -29t-145.5 -4v696h-326v-663q0 -25 -20.5 -29t-145.5 -4z" />
<glyph unicode="I" horiz-adv-x="344" d="M88 0v1358q0 57 21.5 66.5t146.5 9.5v-1401q0 -25 -21.5 -29t-146.5 -4z" />
<glyph unicode="J" horiz-adv-x="626" d="M41 102q0 41 27 95q76 -68 168 -68q84 0 108.5 55.5t24.5 190.5v983q0 57 21.5 66.5t148.5 9.5v-1096q0 -168 -62.5 -262t-218.5 -94q-117 0 -167 34.5t-50 85.5z" />
<glyph unicode="K" horiz-adv-x="804" d="M86 0v1399q0 27 20.5 31t147.5 4v-619l326 608q59 12 106 13q73 0 73 -31q0 -8 -5 -19l-330 -571q248 -188 328 -778q2 -25 -11.5 -33t-56.5 -8q-55 0 -117 6q-49 262 -98 411.5t-131 237.5q-35 33 -84 56v-674q0 -25 -20.5 -29t-147.5 -4z" />
<glyph unicode="L" horiz-adv-x="649" d="M88 0v1386q0 35 21.5 41.5t146.5 6.5v-1278h352v-123q0 -33 -35 -33h-485z" />
<glyph unicode="M" horiz-adv-x="1001" d="M88 0v1399q0 23 9 29t26 6h121l194 -619l66 -229q43 174 59 223l180 590q10 35 33 35h135v-1401q0 -25 -21.5 -29t-148.5 -4l7 498q2 49 36 604q-117 -420 -131 -459l-108 -311q-4 -16 -23 -17h-71l-107 328q-4 12 -133 463v-2q37 -379 39 -598l4 -473q0 -25 -23.5 -29 t-142.5 -4z" />
<glyph unicode="N" horiz-adv-x="909" d="M88 0v1399q0 35 35 35h127l229 -553q57 -152 195 -578v6q-20 176 -21 609v481q0 27 21.5 31t146.5 4v-1401q0 -33 -35 -33h-124l-234 563q-45 111 -195 580q20 -221 21 -613v-497q0 -25 -20.5 -29t-145.5 -4z" />
<glyph unicode="O" horiz-adv-x="876" d="M61 725q0 399 93.5 563t298.5 164q203 0 283.5 -155.5t80.5 -565.5q0 -416 -90 -582.5t-297 -166.5q-137 0 -214 62t-116 224t-39 457zM248 684q0 -291 42 -411.5t148 -120.5q111 0 155 130t44 445q0 311 -40 433t-148.5 122t-154.5 -134t-46 -464z" />
<glyph unicode="P" horiz-adv-x="737" d="M88 0v1399q0 35 35 35h203q195 0 285.5 -96.5t90.5 -309.5q0 -238 -103 -342t-273 -104h-72v-549q0 -25 -20.5 -29t-145.5 -4zM254 735h90q88 0 131 73t43 239q0 242 -162 241h-102v-553z" />
<glyph unicode="Q" horiz-adv-x="876" d="M61 725q0 399 93.5 563t298.5 164q203 0 283.5 -155.5t80.5 -565.5q0 -334 -57.5 -505t-181.5 -220q14 -82 38.5 -115.5t71.5 -33.5q76 0 127 34q25 -37 25 -90q0 -43 -58.5 -62.5t-126.5 -19.5q-106 0 -169.5 62.5t-98.5 202.5q-121 8 -189.5 75.5t-102.5 227t-34 438.5 zM248 684q0 -291 42 -411.5t148 -120.5q111 0 155 130t44 445q0 311 -40 433t-148.5 122t-154.5 -134t-46 -464z" />
<glyph unicode="R" horiz-adv-x="763" d="M88 0v1399q0 35 35 35h203q195 0 285.5 -96.5t90.5 -309.5q0 -301 -178 -401q170 -223 193 -590q0 -25 -14.5 -33t-69.5 -8q-25 0 -98 4q-25 387 -168 584q-14 -2 -41 -2h-72v-549q0 -25 -21.5 -29t-144.5 -4zM254 735h90q88 0 131 71t43 230q0 252 -162 252h-102v-553z " />
<glyph unicode="S" horiz-adv-x="733" d="M51 102q0 63 43 119q80 -72 211 -71q201 0 201 208q0 72 -25.5 130.5t-93.5 136.5l-207 239q-127 158 -127 295q0 133 92.5 214t260.5 81q268 0 268 -102q0 -53 -41 -97q-66 51 -201 52q-92 0 -145.5 -38t-53.5 -104q0 -90 95 -202l221 -252q78 -92 107.5 -170t29.5 -176 q0 -172 -86 -278.5t-281 -106.5q-129 0 -198.5 36.5t-69.5 85.5z" />
<glyph unicode="T" horiz-adv-x="763" d="M16 1278v121q0 35 35 35h697v-123q0 -33 -35 -33h-252v-1245q0 -25 -21.5 -29t-144.5 -4v1278h-279z" />
<glyph unicode="U" horiz-adv-x="894" d="M88 418v981q0 27 21.5 31t150.5 4v-1020q0 -141 39 -211t158 -70q111 0 180 37v1229q0 27 21.5 31t146.5 4v-1381q-43 -29 -139.5 -51t-208.5 -22q-96 0 -165 23.5t-108 61t-61.5 97t-28.5 118t-6 138.5z" />
<glyph unicode="V" horiz-adv-x="860" d="M13 1422q7 11 38 12h135l170 -793q20 -111 82 -500q37 301 74 500l152 743q4 27 12 38.5t31 11.5h145l-315 -1440q-59 -8 -140 -8q-70 0 -98 118q-82 334 -285 1280q-4 14 -4 24q0 9 3 14z" />
<glyph unicode="W" horiz-adv-x="1341" d="M22 1428q9 5 27 6h137l148 -793q29 -158 61 -461h13q8 209 53 461l125 674q4 29 12 39t31 10h119l143 -723q27 -141 61 -459h13q20 270 51 459l131 743q4 27 12 38.5t31 11.5h141l-268 -1440q-98 -10 -139 -10q-68 0 -90 116l-105 459q-20 100 -63 467q-39 -324 -60 -465 l-112 -567q-68 -8 -152 -8q-59 0 -84 127l-244 1271q-3 13 -3 23q1 15 11 21z" />
<glyph unicode="X" horiz-adv-x="868" d="M18 0l312 741l-256 664q-8 20 16 25q25 4 180 4l82 -232q49 -135 101 -307q55 184 102 307l78 205q6 20 28.5 23.5t151.5 3.5l-264 -680l293 -725q5 -10 5 -16q0 -13 -22 -13h-182l-111 276q-55 141 -108 299q-61 -176 -113 -299l-110 -256q-12 -20 -39 -20h-144z" />
<glyph unicode="Y" horiz-adv-x="745" d="M12 1407q-1 4 -1 8q0 12 16 15q23 4 174 4l82 -281q31 -98 63.5 -240.5t36.5 -187.5q4 43 39 185.5t63 242.5l72 250q8 23 30.5 27t149.5 4l-276 -842v-559q0 -25 -20.5 -29t-145.5 -4v580z" />
<glyph unicode="Z" horiz-adv-x="788" d="M31 66q0 35 16 73l514 1145h-381q-72 0 -90 -6v121q0 35 35 35h612q16 -27 17 -56q0 -41 -17 -73l-522 -1155h395q82 0 121 14v-131q0 -33 -35 -33h-639q-26 23 -26 66z" />
<glyph unicode="[" horiz-adv-x="788" d="M248 -408v2038q0 35 18.5 43t108.5 8h395q0 -104 -8 -128.5t-47 -24.5h-299v-1780h352q0 -111 -9 -133.5t-46 -22.5h-465z" />
<glyph unicode="\" horiz-adv-x="675" d="M25 1522q-10 31 15.5 38t145.5 7l465 -1587q8 -29 -17.5 -35t-148.5 -6z" />
<glyph unicode="]" horiz-adv-x="788" d="M18 -410q0 104 8.5 129t47.5 25h299v1784h-353q0 111 9.5 133t46.5 22h465v-2041q0 -35 -18.5 -43.5t-110.5 -8.5h-394z" />
<glyph unicode="^" horiz-adv-x="880" d="M98 512l355 303l297 -260q29 -27 28.5 -55.5t-23 -51t-57.5 -26.5l-264 178l-209 -154q-33 -20 -51 -20q-33 0 -53.5 25.5t-22.5 60.5z" />
<glyph unicode="_" horiz-adv-x="772" d="M27 -223q0 88 5 116.5t29 28.5h682q0 -88 -5 -116.5t-27 -28.5h-684z" />
<glyph unicode="`" horiz-adv-x="350" d="M0 1376q8 45 29.5 86t48.5 41q12 0 126.5 -99t145.5 -142q-25 -92 -63 -93q-12 0 -138 90t-149 117z" />
<glyph unicode="a" horiz-adv-x="724" d="M59 291q0 195 75 265.5t198 70.5q96 0 149 -27v162q0 70 -30.5 95.5t-96.5 25.5q-162 0 -270 -45q-23 41 -23 94q0 41 23 57q31 20 118 37.5t193 17.5q135 0 194.5 -57t59.5 -192v-109q0 -451 -12 -637q-117 -70 -285 -69q-66 0 -110.5 9t-90 38.5t-69 96.5t-23.5 167z M233 295q0 -104 33 -140t101 -36q74 0 108 35q6 68 6 329q-39 18 -96 19q-72 0 -112 -42t-40 -165z" />
<glyph unicode="b" horiz-adv-x="784" d="M96 41v1386q0 55 28 66.5t138 11.5v-532q88 72 219 71q127 0 188.5 -93t61.5 -310q0 -170 -25.5 -295t-63.5 -193.5t-94 -109.5t-104.5 -52t-107.5 -11q-162 0 -240 61zM262 154q35 -27 96 -27q33 0 60.5 17.5t58.5 63.5t49.5 147.5t18.5 248.5q0 160 -33 225.5 t-106 65.5q-80 0 -144 -57v-684z" />
<glyph unicode="c" horiz-adv-x="641" d="M63 489q0 141 23 246t57.5 163t86 92t98.5 44t104 10q72 0 121 -26.5t49 -65.5q0 -47 -18 -92q-66 37 -144 37q-43 0 -73.5 -13.5t-62.5 -52t-49 -124.5t-17 -218q0 -209 42 -285.5t140 -76.5q88 0 162 47q16 -59 16 -90q0 -43 -65.5 -73.5t-163.5 -30.5 q-106 0 -168 35.5t-100 150t-38 323.5z" />
<glyph unicode="d" horiz-adv-x="790" d="M66 475q0 289 87 429t228 140q92 0 145 -40v426q0 53 29 64t137 11v-1464q-127 -61 -293 -61q-61 0 -104 8t-89 37.5t-75 82t-47 145.5t-18 222zM252 494q0 -215 37 -290t117 -75q76 0 120 31v712q-35 27 -94 27q-180 1 -180 -405z" />
<glyph unicode="e" horiz-adv-x="739" d="M63 459q0 184 30 306t86.5 180.5t112.5 78.5t134 20q260 0 260 -329q0 -166 -22 -266q-174 -33 -428 -33q6 -158 49 -216.5t141 -58.5q121 0 233 64q14 -43 15 -113q0 -47 -83 -79.5t-200 -32.5q-78 0 -133 19t-101 69.5t-70 148t-24 242.5zM238 551q24 -1 46 -1 q146 0 230 23q10 45 10 123q-2 113 -26.5 158t-89.5 45q-154 0 -170 -348z" />
<glyph unicode="f" horiz-adv-x="522" d="M25 883q0 100 6 120.5t37 20.5h98v123q0 113 30.5 190.5t85 113.5t107.5 49t121 13q190 0 190 -83q0 -49 -18 -93q-59 25 -145 25q-96 0 -150.5 -40t-54.5 -161v-137h184q0 -98 -5 -119.5t-30 -21.5h-149v-850q0 -33 -33 -33h-133v883h-141z" />
<glyph unicode="g" horiz-adv-x="804" d="M45 -180q0 141 156 246q-61 18 -95 46q-31 26 -30 62q0 83 131 188q-127 82 -127 308q0 375 340 374q47 0 102 -16h246q16 -29 16 -80q0 -63 -57 -63q-29 0 -74 10q78 -78 78 -221q0 -358 -332 -359q-57 0 -92 9q-53 -53 -53 -91q0 -23 45 -34t147 -23l50 -6 q133 -20 201.5 -72.5t68.5 -167.5q0 -143 -99.5 -238t-293.5 -95q-328 0 -328 223zM217 -141q0 -53 37 -81t135 -28q100 0 154.5 48t54.5 110q0 68 -48 94.5t-185 36.5q-12 0 -37 4q-111 -84 -111 -184zM256 674q0 -119 30.5 -175.5t121.5 -56.5q156 0 155 271 q0 209 -149 209q-72 0 -115 -60.5t-43 -187.5z" />
<glyph unicode="h" horiz-adv-x="778" d="M92 0v1430q0 53 27.5 64t138.5 11v-540q92 80 229 79q125 0 169 -65.5t44 -204.5v-741q0 -25 -23.5 -29t-148.5 -4v727q0 78 -23.5 121t-92.5 43q-88 0 -154 -57v-801q0 -25 -21.5 -29t-144.5 -4z" />
<glyph unicode="i" horiz-adv-x="358" d="M94 0v948q0 53 30 64.5t140 11.5v-991q0 -25 -21.5 -29t-148.5 -4zM96 1350q4 123 97 123q47 0 65 -27q17 -24 17 -80q0 -6 -1 -12q0 -133 -94 -133q-84 0 -84 129z" />
<glyph unicode="j" horiz-adv-x="376" d="M-209 -293q0 53 25 86q70 -41 172 -41q76 0 99.5 44t23.5 157v995q0 53 28.5 64.5t136.5 11.5v-1098q0 -154 -57 -240.5t-211 -86.5q-217 -1 -217 108zM106 1350q4 123 97 123q47 0 65 -27q17 -24 17 -80v-12q0 -133 -95 -133q-84 0 -84 129z" />
<glyph unicode="k" horiz-adv-x="780" d="M94 0v1430q0 53 29 64t139 11v-555q111 94 256 94q174 0 174 -176q0 -182 -170 -317q80 -35 135.5 -124t67.5 -222q2 -20 2 -68q0 -49 -6 -104q-4 -25 -26.5 -29t-162.5 -4q8 94 9 131q0 59 -11 121q-18 117 -67 170q-40 43 -88 43q-11 0 -23 -2q-16 -4 -38.5 -13.5 t-37.5 -17.5l-14 -8v-391q0 -25 -20.5 -29t-147.5 -4zM262 543q246 100 246 268q0 84 -76 84q-90 0 -170 -98v-254z" />
<glyph unicode="l" horiz-adv-x="354" d="M94 0v1430q0 53 29 64t137 11v-1472q0 -25 -20.5 -29t-145.5 -4z" />
<glyph unicode="m" horiz-adv-x="1153" d="M94 0v977q150 68 309 67q125 0 185 -63q113 63 252 63q143 0 186 -66.5t43 -221.5v-723q0 -25 -22.5 -29t-143.5 -4v758q0 78 -20.5 108.5t-79.5 30.5q-76 0 -137 -39v-825q0 -25 -20.5 -29t-145.5 -4v797q-2 57 -21.5 79.5t-79.5 22.5q-72 0 -139 -35v-831 q0 -25 -22.5 -29t-143.5 -4z" />
<glyph unicode="n" horiz-adv-x="782" d="M92 0v975q160 70 324 69q160 0 224.5 -62t64.5 -212v-737q0 -25 -23 -29t-150 -4v721q0 100 -24.5 139t-97.5 39q-84 0 -152 -37v-829q0 -25 -21.5 -29t-144.5 -4z" />
<glyph unicode="o" horiz-adv-x="753" d="M49 512q0 532 340 532q168 0 243 -112.5t75 -413.5q0 -281 -84 -409.5t-252 -128.5q-86 0 -140.5 18t-98.5 73.5t-63.5 163t-19.5 277.5zM229 508q0 -164 18.5 -251t47.5 -111.5t80 -24.5q74 0 112.5 86t38.5 309q0 231 -32.5 307t-110.5 76q-76 0 -115 -84t-39 -307z " />
<glyph unicode="p" horiz-adv-x="784" d="M94 -332v1295q129 82 299 81q164 0 249 -94t85 -332q0 -639 -305 -638q-104 0 -162 57v-426q-37 -14 -86 -14q-43 0 -61.5 15t-18.5 56zM260 197q41 -68 111 -68q172 0 172 471q0 174 -37 236.5t-121 62.5q-70 0 -125 -39v-663z" />
<glyph unicode="q" horiz-adv-x="798" d="M63 446q0 317 115 457.5t305 140.5q129 0 219 -63v-1315q0 -47 -17 -58t-81 -14q-35 0 -69 7v469q-61 -90 -195 -90q-55 0 -99 17t-87 64.5t-67 144.5t-24 240zM252 451q0 -100 12 -168t36 -99.5t47.5 -45t53.5 -13.5q94 0 134 104v641q-33 29 -95 29q-94 0 -141 -103 t-47 -345z" />
<glyph unicode="r" horiz-adv-x="538" d="M92 0v952q133 92 279 92q143 0 143 -86q0 -53 -18 -98q-45 25 -99 25q-80 0 -135 -47l-2 -805q0 -25 -21.5 -29t-146.5 -4z" />
<glyph unicode="s" horiz-adv-x="706" d="M61 84q0 49 29 96q88 -51 205 -51q78 0 122 33t44 94q0 86 -82 160l-199 170q-117 96 -117 217q0 113 84 177t250 64q96 0 158.5 -21.5t81 -45t18.5 -47.5q0 -43 -37 -84q-88 53 -200 53q-74 0 -118 -25.5t-44 -72.5q0 -59 82 -127l190 -154q66 -66 93.5 -123t27.5 -133 q0 -135 -90 -209.5t-248 -74.5q-250 0 -250 104z" />
<glyph unicode="t" horiz-adv-x="595" d="M37 881q0 96 5 119.5t32 23.5h102v311q0 41 28.5 49.5t139.5 8.5v-369h209q0 -100 -4 -121.5t-29 -21.5h-176v-596q0 -57 2 -84t19.5 -52.5t52.5 -25.5q57 0 119 31q12 -45 12 -82q0 -92 -176 -92q-121 0 -159 73.5t-38 231.5v596h-139z" />
<glyph unicode="u" horiz-adv-x="798" d="M90 319v670q0 27 21.5 31t150.5 4v-719q0 -102 27.5 -141t109.5 -39t138 37v827q0 27 21.5 31t143.5 4v-971q-133 -74 -305 -73q-176 0 -241.5 79.5t-65.5 259.5z" />
<glyph unicode="v" horiz-adv-x="704" d="M37 973q-2 10 -2 17q0 23 18 28q25 6 162 6l66 -328q18 -94 38.5 -224t30.5 -212l10 -82h5q35 305 75 520l56 289q4 27 26.5 32t149.5 5l-236 -1030q-31 -6 -117 -6q-49 0 -73 100z" />
<glyph unicode="w" horiz-adv-x="1105" d="M31 989q-2 25 23.5 30t158.5 5l61 -334q43 -227 72 -497h12q43 299 58 374l63 394q4 23 13.5 28.5t42.5 5.5h108l80 -430q16 -68 31.5 -161t23.5 -152l8 -59h11q14 225 63 497l53 297q2 27 25 32t139 5q-213 -1030 -221 -1030q-37 -6 -106 -6q-27 0 -52.5 27.5 t-35.5 78.5l-27 137q-45 223 -74 508q-35 -309 -74 -508l-47 -237q-86 -6 -139 -6q-47 0 -72 100z" />
<glyph unicode="x" horiz-adv-x="839" d="M31 0l288 535l-247 462q-10 18 6 23q20 4 168 4l76 -139q68 -135 108 -234q55 127 113 234l61 110q10 20 34 24.5t153 4.5l-263 -479l273 -506q5 -12 5 -20q0 -10 -9 -13q-16 -6 -181 -6l-75 133q-66 119 -133 275q-74 -170 -129 -275l-58 -100q-10 -25 -39.5 -29 t-150.5 -4z" />
<glyph unicode="y" horiz-adv-x="729" d="M-8 -315q0 61 24 94q47 -33 129 -33q109 0 150 221l-246 1012q-8 33 11.5 39t150.5 6l111 -487q10 -51 20 -117t16.5 -112t12.5 -88t6 -46q27 238 49 365l90 436q6 37 29.5 43t150.5 6l-252 -1079q-45 -193 -108.5 -266.5t-177.5 -73.5q-166 0 -166 80z" />
<glyph unicode="z" horiz-adv-x="684" d="M41 82q0 33 14 63l398 738h-209q-115 0 -187 -11q-6 37 -6 80q0 72 53 72h521q18 -16 18 -51q0 -33 -20 -82l-385 -737h180q125 0 215 22q6 -29 6 -74q-2 -55 -15.5 -78.5t-52.5 -23.5h-501q-29 25 -29 82z" />
<glyph unicode="{" horiz-adv-x="565" d="M84 600q0 55 35 84q35 23 49 35t28.5 52t14.5 103q0 76 -14.5 213.5t-14.5 194.5q0 238 318 242q31 -41 30 -103q0 -53 -28 -59q-150 -12 -150 -164q0 -45 10.5 -171t10.5 -204q0 -92 -28 -138t-83 -71q57 -23 84 -64.5t27 -129.5q0 -78 -10.5 -202t-10.5 -173 q0 -109 37 -147.5t127 -51.5q6 -39 6 -63q0 -90 -57 -90q-150 0 -216.5 68.5t-66.5 207.5q0 70 14.5 198t14.5 206t-27.5 112.5t-87.5 46.5q-12 27 -12 68z" />
<glyph unicode="|" horiz-adv-x="661" d="M248 -410v2034q0 33 22.5 39t145.5 6v-2038q0 -31 -22.5 -36t-145.5 -5z" />
<glyph unicode="}" horiz-adv-x="565" d="M37 -203q0 51 31 58q147 12 147 163q0 45 -10 170t-10 203q0 94 27.5 141.5t80.5 69.5q-55 23 -81.5 66t-26.5 129q0 78 10 201.5t10 172.5q0 109 -38 148t-126 51q-8 35 -8 64q0 90 61 90q147 0 214 -69t67 -208q0 -70 -14.5 -197.5t-14.5 -205.5t27 -113t86 -47 q14 -35 14 -68q0 -59 -37 -81q-33 -23 -48 -37.5t-28.5 -53t-13.5 -102.5q0 -78 14.5 -214t14.5 -194q0 -123 -86 -182t-231 -59q-31 45 -31 104z" />
<glyph unicode="~" horiz-adv-x="819" d="M23 545q29 49 103.5 89t160.5 40q74 0 143.5 -44t122.5 -44q84 0 143 71q37 25 69 -4.5t36 -87.5q-37 -51 -104.5 -91t-157.5 -40q-78 0 -151 45t-118 45t-102 -37.5t-74 -40.5q-29 -2 -49 25t-22 74z" />
<glyph unicode="&#xa1;" horiz-adv-x="399" d="M90 -403l33 925q2 51 33.5 63.5t134.5 12.5l26 -952q2 -35 -36.5 -42t-190.5 -7zM94 924q0 49 32 82.5t83 33.5q115 0 115 -116q0 -49 -31 -84t-84 -35q-115 0 -115 119z" />
<glyph unicode="&#xa2;" d="M170 467q0 496 264 565v178q0 41 36 55.5t116 14.5v-240q49 -10 85 -29.5t36 -37.5q0 -76 -19 -121q-63 37 -137 37q-45 0 -78 -13.5t-66.5 -52.5t-52 -127t-18.5 -223q0 -154 22.5 -228.5t58.5 -93t109 -18.5q86 0 160 47q16 -49 16 -104q0 -31 -49 -59.5t-114 -34.5 v-189q0 -41 -35 -53t-117 -12v260q-113 16 -165 117.5t-52 361.5z" />
<glyph unicode="&#xa3;" horiz-adv-x="749" d="M31 567q0 88 5 117t27 29h95q8 270 92 388t237 118q86 0 144.5 -28t58.5 -81q0 -47 -20 -102q-68 43 -146 43q-94 0 -146 -73t-54 -265h266q0 -88 -5 -117t-28 -29h-233q0 -199 16 -401l319 -14q12 -33 13 -76q0 -76 -105 -76h-387q-18 244 -22 567h-127z" />
<glyph unicode="&#xa5;" d="M61 1407q-6 18 15 23q23 4 174 4l80 -281q92 -295 98 -389q10 111 102 389l76 250q8 23 30.5 27t149.5 4l-194 -596h182q0 -82 -11 -111t-52 -29h-166l-35 -108v-90h266q0 -80 -12 -110t-53 -30h-201v-327q0 -25 -19.5 -29t-146.5 -4v360h-266q0 80 12 110t53 30h201v80 l-41 118h-225q0 80 12 110t53 30h113z" />
<glyph unicode="&#xa6;" horiz-adv-x="464" d="M150 393q0 37 18 52.5t68 15.5q43 0 79 -12v-795q0 -37 -16 -48.5t-70 -11.5q-49 0 -79 11v788zM150 676v780q0 37 18 51.5t68 14.5q43 0 79 -13v-784q0 -35 -16 -46t-70 -11q-46 0 -79 8z" />
<glyph unicode="&#xa7;" horiz-adv-x="712" d="M72 795q0 127 114 204q-12 12 -16 21q-76 96 -76 182q0 111 87 174.5t222 63.5q90 0 147.5 -27t72.5 -59q4 -12 4 -35q0 -55 -31 -102q-70 47 -166 47q-70 0 -108.5 -26t-38.5 -69q0 -47 61 -116q6 -8 95 -94.5t124 -133.5q74 -92 74 -186q0 -129 -115 -207l19 -20 q76 -98 75 -183q0 -109 -88 -173t-223 -64q-90 0 -147.5 27.5t-69.5 60.5q-6 12 -6 33q0 55 31 102q74 -47 166 -47q70 0 108.5 26.5t38.5 67.5q0 45 -61 117q-14 16 -99.5 99t-120.5 128q-73 93 -73 189zM227 780q0 -61 62 -135q23 -31 110 -102q37 14 59.5 48t22.5 60 q0 59 -59 135q-27 33 -115 103q-35 -12 -57.5 -46t-22.5 -63z" />
<glyph unicode="&#xa8;" horiz-adv-x="493" d="M0 1309q0 43 27.5 73.5t72.5 30.5q102 0 103 -104q0 -45 -28 -75t-75 -30q-100 1 -100 105zM293 1309q0 43 26.5 73.5t71.5 30.5q102 0 103 -104q0 -45 -28 -75t-75 -30q-98 1 -98 105z" />
<glyph unicode="&#xa9;" horiz-adv-x="966" d="M72 1108q0 449 424 448q207 0 302 -102t95 -342q0 -221 -106.5 -339t-307.5 -118q-207 0 -307 104.5t-100 348.5zM199 1108q0 -182 68.5 -257t207.5 -75q131 0 211 82t80 256q0 170 -66.5 249t-205.5 79q-295 0 -295 -334zM322 1087q0 168 53 224.5t135 56.5 q31 0 61.5 -11t30.5 -22q0 -23 -12 -65q-47 14 -69.5 14t-38 -6t-32 -24.5t-24.5 -60.5t-8 -108q0 -96 20.5 -122.5t69.5 -26.5q27 0 78 20q14 -29 14 -59q0 -16 -32.5 -29.5t-69.5 -13.5q-98 0 -137 43t-39 190z" />
<glyph unicode="&#xaa;" horiz-adv-x="659" d="M82 842q0 252 225 252q61 0 131 -21v117q0 70 -34.5 94.5t-94.5 24.5q-90 0 -192 -47q-18 23 -21.5 62.5t10.5 57.5q66 72 254 72q217 0 218 -209v-596q-119 -59 -265 -59q-109 0 -170 50t-61 202zM217 838q0 -129 119 -129q53 0 102 24v225q-49 16 -86 17 q-70 0 -102.5 -25.5t-32.5 -111.5z" />
<glyph unicode="&#xab;" horiz-adv-x="851" d="M37 516q0 33 73.5 160t147.5 237l76 111q29 0 54.5 -20.5t35.5 -40.5l10 -23q0 -35 -60.5 -140.5t-119.5 -193.5l-61 -90q246 -344 245 -420q-4 -10 -11 -26.5t-32.5 -43t-54.5 -26.5q-303 442 -303 516zM389 514q0 31 74 146.5t147 216.5l74 100q27 0 51.5 -19.5 t34.5 -39.5l10 -19q0 -33 -58 -129t-116 -176l-59 -80q238 -301 237 -373q-4 -10 -11 -25.5t-31.5 -40t-51.5 -24.5q-301 391 -301 463z" />
<glyph unicode="&#xac;" horiz-adv-x="819" d="M70 553q0 80 53 80h610v-406q-43 -14 -76 -14q-82 0 -82 55v207h-493q-12 41 -12 78z" />
<glyph unicode="&#xad;" horiz-adv-x="569" d="M76 504q0 88 5 116.5t28 28.5h385q0 -88 -5.5 -116.5t-29.5 -28.5h-383z" />
<glyph unicode="&#xae;" horiz-adv-x="966" d="M72 1108q0 449 424 448q207 0 302 -102t95 -342q0 -221 -106.5 -339t-307.5 -118q-207 0 -307 104.5t-100 348.5zM199 1108q0 -182 68.5 -257t207.5 -75q131 0 211 82t80 256q0 170 -66.5 249t-205.5 79q-295 0 -295 -334zM360 854v508q0 10 15 10h90q166 0 166 -149 q0 -94 -70 -140q72 -68 84 -211q0 -20 -33 -20q-37 0 -51 2q-12 158 -74 205h-49v-189q0 -12 -12.5 -14t-65.5 -2zM438 1128h33q78 0 78 101q0 76 -74 76h-37v-177z" />
<glyph unicode="&#xaf;" horiz-adv-x="546" d="M0 1290q0 82 66 82h466q14 -35 15 -72q0 -39 -16.5 -62.5t-47.5 -23.5h-471q-12 35 -12 76z" />
<glyph unicode="&#xb0;" horiz-adv-x="733" d="M170 1329q0 199 205 199q100 0 145 -43t45 -154q0 -201 -203 -201q-100 0 -146 43t-46 156zM283 1327q0 -90 82 -90q90 0 90 94q0 90 -78 90q-94 0 -94 -94z" />
<glyph unicode="&#xb1;" horiz-adv-x="858" d="M70 29q0 88 5 116.5t29 28.5h682q0 -88 -5 -116.5t-27 -28.5h-684zM72 592q0 88 5 116.5t29 28.5h252v252q0 25 29 30t117 5v-287h284q0 -88 -5 -116.5t-27 -28.5h-252v-252q0 -23 -29 -28t-117 -5v285h-286z" />
<glyph unicode="&#xb2;" horiz-adv-x="786" d="M82 647q0 55 24 86q57 66 162 162t155 158.5t50 124.5q0 106 -131 106q-102 0 -207 -78q-31 57 -31 103q0 55 101.5 100t214.5 45q141 0 197.5 -56.5t56.5 -160.5q0 -68 -39 -141.5t-81 -120.5t-117 -121t-103 -104h358q10 -39 10 -74q0 -84 -53 -84h-555q-12 30 -12 55z " />
<glyph unicode="&#xb3;" horiz-adv-x="784" d="M90 686q0 55 41 90q78 -51 199 -51q88 0 140 33t52 94q0 94 -116 111q-55 6 -146 6q-18 25 -18 76t53 51t106 -6q78 55 78 124q0 90 -131 91q-119 0 -211 -68q-31 31 -34 75t20 62q88 80 295 80q125 0 186.5 -50t61.5 -134q0 -119 -111 -213q66 -27 102.5 -78t36.5 -113 q0 -145 -99 -220t-259 -75q-156 0 -219 52q-27 20 -27 63z" />
<glyph unicode="&#xb4;" horiz-adv-x="350" d="M0 1260q63 74 161.5 156.5t112.5 82.5q27 0 48.5 -41t27.5 -84q-23 -29 -127 -103.5t-160 -105.5q-16 0 -32.5 23.5t-22.5 48.5z" />
<glyph unicode="&#xb5;" horiz-adv-x="806" d="M90 -389v1352q0 72 86 71q49 0 82 -10v-756q0 -131 141 -131q84 0 148 29v797q0 37 17.5 54t64.5 17q53 0 86 -10v-975q-152 -70 -320 -69q-98 0 -137 51v-365q0 -66 -94 -65q-17 0 -74 10z" />
<glyph unicode="&#x3bc;" horiz-adv-x="806" d="M90 -389v1352q0 72 86 71q49 0 82 -10v-756q0 -131 141 -131q84 0 148 29v797q0 37 17.5 54t64.5 17q53 0 86 -10v-975q-152 -70 -320 -69q-98 0 -137 51v-365q0 -66 -94 -65q-17 0 -74 10z" />
<glyph unicode="&#xb6;" horiz-adv-x="1107" d="M68 860q0 305 107.5 449.5t297.5 144.5q137 0 248 -57v-1344q0 -59 -82 -59q-49 0 -86 12v414q-57 -31 -162 -31q-323 0 -323 471zM240 877q0 -352 192 -353q76 0 121 29v737q-41 20 -104 21q-209 0 -209 -434zM848 4v1344q0 37 18.5 51t67.5 14q41 0 82 -12v-1348 q0 -37 -17.5 -48t-70.5 -11q-49 0 -80 10z" />
<glyph unicode="&#xb7;" horiz-adv-x="452" d="M109 551q0 49 31.5 84t82.5 35q115 0 115 -119q0 -51 -31 -84t-84 -33q-114 0 -114 117z" />
<glyph unicode="&#xb8;" horiz-adv-x="278" d="M0 -397q12 72 27 84q10 6 19 1t30.5 -13.5t40.5 -8.5q66 0 65 70q0 68 -61 67l-84 -10l39 211h92l-25 -123h35q41 0 71 -32.5t30 -98.5q0 -78 -46.5 -125t-117.5 -47z" />
<glyph unicode="&#xb9;" horiz-adv-x="780" d="M90 664q0 86 57 86h191v522l-221 -45q-20 35 -21 80q0 55 56 77q72 25 170 47.5t133 22.5q39 0 51 -6v-698h178q6 -43 6 -74q0 -47 -11 -65.5t-38 -18.5h-541q-10 35 -10 72z" />
<glyph unicode="&#xba;" horiz-adv-x="692" d="M72 1022q0 432 284 432q139 0 202 -92t63 -336q0 -434 -283 -434q-135 0 -200.5 93t-65.5 337zM213 1012q0 -164 29.5 -223.5t97.5 -59.5q139 0 139 293q0 164 -28.5 224.5t-94.5 60.5q-72 0 -107.5 -67.5t-35.5 -227.5z" />
<glyph unicode="&#xbb;" horiz-adv-x="847" d="M66 141q2 76 237 371q4 0 -52 79t-117.5 176t-61.5 132q0 25 22.5 46.5t44.5 29.5l23 8q297 -401 297 -471q0 -72 -299 -463l-4 -4q-10 2 -25.5 9t-40 31.5t-24.5 55.5zM410 96q2 76 245 420q-242 346 -241 424q0 25 24.5 46.5t48.5 29.5l27 8q297 -436 297 -508 q0 -33 -76 -162t-151 -241l-76 -113q-10 2 -26.5 9t-44 31.5t-27.5 55.5z" />
<glyph unicode="&#xbc;" horiz-adv-x="1779" d="M90 664q0 86 57 86h191v522l-221 -45q-20 35 -21 80q0 55 56 77q72 25 170 47.5t133 22.5q39 0 51 -6v-698h178q6 -43 6 -74q0 -47 -11 -65.5t-38 -18.5h-541q-10 35 -10 72zM510 39l686 1376q16 39 57 39q61 0 113 -59l-690 -1385q-8 -31 -49 -30q-62 0 -117 59z M1020 225q0 20 14 68q37 121 129 270.5t178 235.5q53 63 146 63q41 0 67 -10v-551h123q12 -37 13 -78q0 -80 -52 -80h-84v-104q0 -51 -88 -51q-35 0 -67 8v147h-350q-29 35 -29 82zM1174 291h231l8 381q-68 -53 -139 -167t-100 -214z" />
<glyph unicode="&#xbd;" horiz-adv-x="1843" d="M90 664q0 86 57 86h191v522l-221 -45q-20 35 -21 80q0 55 56 77q72 25 170 47.5t133 22.5q39 0 51 -6v-698h178q6 -43 6 -74q0 -47 -11 -65.5t-38 -18.5h-541q-10 35 -10 72zM510 39l686 1376q16 39 57 39q61 0 113 -59l-690 -1385q-8 -31 -49 -30q-62 0 -117 59z M1130 55q0 55 25 86q57 66 161.5 162t155 158.5t50.5 124.5q0 106 -131 106q-102 0 -207 -78q-31 57 -31 103q0 55 101.5 100t213.5 45q141 0 197.5 -56t56.5 -161q0 -68 -38.5 -141.5t-80.5 -120.5t-117 -121t-104 -104h359q10 -39 10 -74q0 -84 -53 -84h-555 q-13 30 -13 55z" />
<glyph unicode="&#xbe;" horiz-adv-x="1773" d="M90 686q0 55 41 90q78 -51 199 -51q88 0 140 33t52 94q0 94 -116 111q-55 6 -146 6q-18 25 -18 76t53 51t106 -6q78 55 78 124q0 90 -131 91q-119 0 -211 -68q-31 31 -34 75t20 62q88 80 295 80q125 0 186.5 -50t61.5 -134q0 -119 -111 -213q66 -27 102.5 -78t36.5 -113 q0 -145 -99 -220t-259 -75q-156 0 -219 52q-27 20 -27 63zM504 39l686 1376q16 39 57 39q61 0 113 -59l-690 -1385q-8 -31 -49 -30q-62 0 -117 59zM1014 225q0 20 14 68q37 121 129 270.5t178 235.5q53 63 146 63q41 0 67 -10v-551h123q12 -37 12 -78q0 -80 -51 -80h-84 v-104q0 -51 -88 -51q-35 0 -67 8v147h-351q-28 35 -28 82zM1167 291h232l8 381q-68 -53 -139.5 -167t-100.5 -214z" />
<glyph unicode="&#xbf;" horiz-adv-x="626" d="M29 -115q0 111 35.5 196t104.5 173t87 123q25 43 25 96q0 27 -6.5 61.5t-9.5 47t3 26.5q29 35 150 19q31 -61 31 -146q0 -82 -37 -147q-29 -53 -87.5 -136t-87 -143.5t-28.5 -130.5q0 -156 166 -155q100 0 170 51q25 -66 24 -133q0 -35 -80.5 -60.5t-175.5 -25.5 q-133 0 -208.5 72.5t-75.5 211.5zM227 920q0 51 31 83.5t84 32.5q115 0 115 -116q0 -49 -31 -84t-84 -35q-115 0 -115 119z" />
<glyph unicode="&#xc0;" horiz-adv-x="894" d="M10 2l365 1409q6 29 63 29q47 0 78 -6l367 -1403q4 -18 -10.5 -26.5t-61.5 -8.5q-57 0 -98 4l-88 365h-353l-79 -336q-4 -12 -9.5 -18.5t-21 -10.5t-47.5 -4q-46 0 -105 6zM207 1786q8 45 29.5 86t48.5 41q12 0 126.5 -99.5t145.5 -142.5q-25 -92 -63 -92q-12 0 -138 90 t-149 117zM307 516h283l-70 291q-53 221 -71 393q-20 -166 -72 -393z" />
<glyph unicode="&#xc1;" horiz-adv-x="894" d="M10 2l365 1409q6 29 63 29q47 0 78 -6l367 -1403q4 -18 -10.5 -26.5t-61.5 -8.5q-57 0 -98 4l-88 365h-353l-79 -336q-4 -12 -9.5 -18.5t-21 -10.5t-47.5 -4q-46 0 -105 6zM307 516h283l-70 291q-53 221 -71 393q-20 -166 -72 -393zM350 1669q63 74 161.5 157t113.5 83 q27 0 48 -41t27 -84q-23 -29 -127 -103.5t-159 -105.5q-16 0 -32.5 23.5t-25.5 48.5z" />
<glyph unicode="&#xc2;" horiz-adv-x="894" d="M10 2l365 1409q6 29 63 29q47 0 78 -6l367 -1403q4 -18 -10.5 -26.5t-61.5 -8.5q-57 0 -98 4l-88 365h-353l-79 -336q-4 -12 -9.5 -18.5t-21 -10.5t-47.5 -4q-46 0 -105 6zM186 1628l232 252q12 6 35 6q27 0 51 -24q199 -201 198 -236q0 -23 -35.5 -36t-82.5 -13 q-106 109 -133 160q-117 -158 -154 -158q-80 0 -111 49zM307 516h283l-70 291q-53 221 -71 393q-20 -166 -72 -393z" />
<glyph unicode="&#xc3;" horiz-adv-x="894" d="M10 2l365 1409q6 29 63 29q47 0 78 -6l367 -1403q4 -18 -10.5 -26.5t-61.5 -8.5q-57 0 -98 4l-88 365h-353l-79 -336q-4 -12 -9.5 -18.5t-21 -10.5t-47.5 -4q-46 0 -105 6zM145 1688q94 154 232 153q45 0 91 -48t87 -48t67.5 19.5t40 39t25.5 19.5q16 0 30.5 -22.5 t22.5 -47.5l7 -22q-18 -37 -81 -91.5t-143 -54.5q-47 0 -75.5 24.5t-50 49t-52.5 24.5q-41 0 -77 -39.5t-44 -39.5q-20 0 -39.5 21.5t-29.5 41.5zM307 516h283l-70 291q-53 221 -71 393q-20 -166 -72 -393z" />
<glyph unicode="&#xc4;" horiz-adv-x="894" d="M10 2l365 1409q6 29 63 29q47 0 78 -6l367 -1403q4 -18 -10.5 -26.5t-61.5 -8.5q-57 0 -98 4l-88 365h-353l-79 -336q-4 -12 -9.5 -18.5t-21 -10.5t-47.5 -4q-46 0 -105 6zM205 1718q0 43 27.5 74t72.5 31q102 0 103 -105q0 -45 -28 -74.5t-75 -29.5q-100 0 -100 104z M307 516h283l-70 291q-53 221 -71 393q-20 -166 -72 -393zM498 1718q0 43 26.5 74t71.5 31q102 0 102 -105q0 -45 -27.5 -74.5t-74.5 -29.5q-98 0 -98 104z" />
<glyph unicode="&#xc5;" horiz-adv-x="894" d="M10 2l365 1409q6 29 63 29q47 0 78 -6l367 -1403q4 -18 -10.5 -26.5t-61.5 -8.5q-57 0 -98 4l-88 365h-353l-79 -336q-4 -12 -9.5 -18.5t-21 -10.5t-47.5 -4q-46 0 -105 6zM246 1759q0 201 205 201q100 0 145 -44t45 -155q0 -201 -203 -200q-98 0 -145 44.5t-47 153.5z M307 516h283l-70 291q-53 221 -71 393q-20 -166 -72 -393zM365 1757q0 -84 75 -84q84 0 84 88q0 84 -71 84q-88 0 -88 -88z" />
<glyph unicode="&#xc6;" horiz-adv-x="1259" d="M35 2l600 1403q12 29 53 29h531q0 -104 -4.5 -127t-26.5 -23h-328v-428h309q0 -102 -5 -128t-27 -26h-277v-552h350q0 -106 -4 -128t-28 -22h-484v365h-338l-139 -336q-12 -33 -78 -33q-45 0 -104 6zM420 516h274v741q-72 -246 -153 -456z" />
<glyph unicode="&#xc7;" horiz-adv-x="694" d="M63 657q0 203 26 352.5t63.5 233.5t94 135.5t108 66.5t112.5 15q193 0 192 -112q0 -55 -26 -101q-57 51 -133 51q-43 0 -77 -13t-70 -54t-59.5 -108.5t-38.5 -184.5t-15 -272q0 -201 27.5 -317t69.5 -153.5t107 -37.5q113 0 189 63q25 -53 24 -100q0 -55 -57 -96 t-151 -50l-19 -94h35q41 0 70.5 -32.5t29.5 -98.5q0 -78 -46 -125t-118 -47l-114 25q12 72 26 84q10 6 19.5 1t31 -13.5t39.5 -8.5q66 0 66 70q0 68 -61 67l-84 -10l32 182q-70 6 -119 37t-91 103.5t-62.5 207.5t-20.5 334z" />
<glyph unicode="&#xc8;" horiz-adv-x="655" d="M90 0v1399q2 35 35 35h489q0 -104 -4 -127t-26 -23h-326v-428h307q0 -102 -4 -128t-26 -26h-277v-552h350q0 -106 -4 -128t-29 -22h-485zM133 1786q8 45 29.5 86t48.5 41q12 0 127 -99.5t145 -142.5q-25 -92 -63 -92q-12 0 -138 90t-149 117z" />
<glyph unicode="&#xc9;" horiz-adv-x="655" d="M90 0v1399q2 35 35 35h489q0 -104 -4 -127t-26 -23h-326v-428h307q0 -102 -4 -128t-26 -26h-277v-552h350q0 -106 -4 -128t-29 -22h-485zM279 1669q63 74 161.5 157t112.5 83q27 0 48.5 -41t27.5 -84q-23 -29 -127.5 -103.5t-159.5 -105.5q-16 0 -31.5 23.5t-23.5 48.5z " />
<glyph unicode="&#xca;" horiz-adv-x="655" d="M90 0v1399q2 35 35 35h489q0 -104 -4 -127t-26 -23h-326v-428h307q0 -102 -4 -128t-26 -26h-277v-552h350q0 -106 -4 -128t-29 -22h-485zM115 1628l231 252q12 6 35 6q27 0 51 -24q199 -201 199 -236q0 -23 -36 -36t-83 -13q-106 109 -133 160q-117 -158 -154 -158 q-79 0 -110 49z" />
<glyph unicode="&#xcb;" horiz-adv-x="655" d="M90 0v1399q2 35 35 35h489q0 -104 -4 -127t-26 -23h-326v-428h307q0 -102 -4 -128t-26 -26h-277v-552h350q0 -106 -4 -128t-29 -22h-485zM131 1718q0 43 27.5 74t72.5 31q102 0 103 -105q0 -45 -27.5 -74.5t-75.5 -29.5q-100 0 -100 104zM424 1718q0 43 26.5 74t71.5 31 q102 0 103 -105q0 -45 -28 -74.5t-75 -29.5q-98 0 -98 104z" />
<glyph unicode="&#xcc;" horiz-adv-x="344" d="M-68 1786q8 45 30 86t48 41q12 0 127 -99.5t146 -142.5q-25 -92 -64 -92q-12 0 -138 90t-149 117zM88 0v1358q0 57 21.5 66.5t146.5 9.5v-1401q0 -25 -21.5 -29t-146.5 -4z" />
<glyph unicode="&#xcd;" horiz-adv-x="344" d="M78 1669q63 74 161.5 157t112.5 83q27 0 48.5 -41t27.5 -84q-23 -29 -127 -103.5t-160 -105.5q-16 0 -32.5 23.5t-22.5 48.5zM88 0v1358q0 57 21.5 66.5t146.5 9.5v-1401q0 -25 -21.5 -29t-146.5 -4z" />
<glyph unicode="&#xce;" horiz-adv-x="344" d="M-88 1628l231 252q12 6 35 6q27 0 51 -24q199 -201 199 -236q0 -23 -36 -36t-83 -13q-106 109 -133 160q-117 -158 -153 -158q-80 0 -111 49zM88 0v1358q0 57 21.5 66.5t146.5 9.5v-1401q0 -25 -21.5 -29t-146.5 -4z" />
<glyph unicode="&#xcf;" horiz-adv-x="344" d="M-70 1718q0 43 28 74t73 31q102 0 102 -105q0 -45 -27.5 -74.5t-74.5 -29.5q-101 0 -101 104zM88 0v1358q0 57 21.5 66.5t146.5 9.5v-1401q0 -25 -21.5 -29t-146.5 -4zM223 1718q0 43 26.5 74t72.5 31q102 0 102 -105q0 -45 -27.5 -74.5t-74.5 -29.5q-99 0 -99 104z" />
<glyph unicode="&#xd0;" horiz-adv-x="804" d="M8 676q0 90 5 118.5t30 28.5h47v572q0 39 55 39h199q209 0 305 -138.5t96 -488.5q0 -442 -99 -624.5t-300 -182.5h-256v676h-82zM256 160l92 -2q45 0 78 23.5t64.5 87t48 199.5t16.5 339q0 272 -48 372.5t-157 100.5h-94v-457h162q0 -90 -5 -118.5t-28 -28.5h-129v-516z " />
<glyph unicode="&#xd1;" horiz-adv-x="909" d="M88 0v1399q0 35 35 35h127l229 -553q57 -152 195 -578v6q-20 176 -21 609v481q0 27 21.5 31t146.5 4v-1401q0 -33 -35 -33h-124l-234 563q-45 111 -195 580q20 -221 21 -613v-497q0 -25 -20.5 -29t-145.5 -4zM168 1688q94 154 231 153q45 0 91.5 -48t87 -48t67.5 19.5 t40 39t26 19.5q16 0 30.5 -22.5t20.5 -47.5l8 -22q-18 -37 -80.5 -91.5t-142.5 -54.5q-47 0 -76 24.5t-50.5 49t-51.5 24.5q-41 0 -77 -39.5t-44 -39.5q-20 0 -40 21.5t-30 41.5z" />
<glyph unicode="&#xd2;" horiz-adv-x="876" d="M61 725q0 399 93.5 563t298.5 164q203 0 283.5 -155.5t80.5 -565.5q0 -416 -90 -582.5t-297 -166.5q-137 0 -214 62t-116 224t-39 457zM211 1786q8 45 29.5 86t48.5 41q12 0 126.5 -99.5t145.5 -142.5q-25 -92 -63 -92q-12 0 -138 90t-149 117zM248 684q0 -291 42 -411.5 t148 -120.5q111 0 155 130t44 445q0 311 -40 433t-148.5 122t-154.5 -134t-46 -464z" />
<glyph unicode="&#xd3;" horiz-adv-x="876" d="M61 725q0 399 93.5 563t298.5 164q203 0 283.5 -155.5t80.5 -565.5q0 -416 -90 -582.5t-297 -166.5q-137 0 -214 62t-116 224t-39 457zM248 684q0 -291 42 -411.5t148 -120.5q111 0 155 130t44 445q0 311 -40 433t-148.5 122t-154.5 -134t-46 -464zM356 1669 q63 74 161.5 157t113.5 83q27 0 48 -41t28 -84q-23 -29 -127.5 -103.5t-159.5 -105.5q-16 0 -31.5 23.5t-23.5 48.5z" />
<glyph unicode="&#xd4;" horiz-adv-x="876" d="M61 725q0 399 93.5 563t298.5 164q203 0 283.5 -155.5t80.5 -565.5q0 -416 -90 -582.5t-297 -166.5q-137 0 -214 62t-116 224t-39 457zM193 1628l231 252q12 6 35 6q27 0 51 -24q199 -201 199 -236q0 -23 -36 -36t-83 -13q-106 109 -133 160q-117 -158 -154 -158 q-79 0 -110 49zM248 684q0 -291 42 -411.5t148 -120.5q111 0 155 130t44 445q0 311 -40 433t-148.5 122t-154.5 -134t-46 -464z" />
<glyph unicode="&#xd5;" horiz-adv-x="876" d="M61 725q0 399 93.5 563t298.5 164q203 0 283.5 -155.5t80.5 -565.5q0 -416 -90 -582.5t-297 -166.5q-137 0 -214 62t-116 224t-39 457zM152 1688q94 154 231 153q45 0 91 -48t87 -48t67.5 19.5t40 39t25.5 19.5q16 0 30.5 -22.5t20.5 -47.5l9 -22q-18 -37 -81 -91.5 t-143 -54.5q-47 0 -75.5 24.5t-50 49t-52.5 24.5q-41 0 -76.5 -39.5t-44.5 -39.5q-20 0 -39.5 21.5t-29.5 41.5zM248 684q0 -291 42 -411.5t148 -120.5q111 0 155 130t44 445q0 311 -40 433t-148.5 122t-154.5 -134t-46 -464z" />
<glyph unicode="&#xd6;" horiz-adv-x="876" d="M61 725q0 399 93.5 563t298.5 164q203 0 283.5 -155.5t80.5 -565.5q0 -416 -90 -582.5t-297 -166.5q-137 0 -214 62t-116 224t-39 457zM211 1718q0 43 27.5 74t72.5 31q102 0 103 -105q0 -45 -28 -74.5t-75 -29.5q-100 0 -100 104zM248 684q0 -291 42 -411.5t148 -120.5 q111 0 155 130t44 445q0 311 -40 433t-148.5 122t-154.5 -134t-46 -464zM504 1718q0 43 26.5 74t71.5 31q102 0 103 -105q0 -45 -28 -74.5t-75 -29.5q-98 0 -98 104z" />
<glyph unicode="&#xd7;" d="M145 375l183 200l-183 205q84 82 105 86q12 2 22 -8l154 -172l156 172q16 16 39.5 0t87.5 -78l-183 -202l183 -203q-86 -84 -109 -86q-10 -2 -20 6l-154 170l-154 -170q-16 -16 -38.5 0.5t-88.5 79.5z" />
<glyph unicode="&#xd8;" horiz-adv-x="948" d="M76 18q-2 4 71 195q-51 168 -51 512q0 399 91.5 564t295.5 165q162 0 242 -94q35 92 47 113q96 -10 105 -52q2 -25 -70 -229q45 -162 45 -461q0 -416 -90 -583.5t-297 -167.5q-166 0 -244 92q-8 -23 -17 -45.5t-17.5 -40t-8.5 -19.5q-31 0 -64.5 13t-37.5 38zM283 684 q0 -205 14 -319l303 860q-41 59 -119 59q-106 0 -152 -135t-46 -465zM350 201q39 -49 109 -49q74 0 115.5 39.5t69.5 170t28 365.5q0 193 -17 328q-139 -405 -305 -854z" />
<glyph unicode="&#xd9;" horiz-adv-x="894" d="M88 418v981q0 27 21.5 31t150.5 4v-1020q0 -141 39 -211t158 -70q111 0 180 37v1229q0 27 21.5 31t146.5 4v-1381q-43 -29 -139.5 -51t-208.5 -22q-96 0 -165 23.5t-108 61t-61.5 97t-28.5 118t-6 138.5zM211 1786q8 45 29.5 86t48.5 41q12 0 126.5 -99.5t145.5 -142.5 q-25 -92 -63 -92q-12 0 -138 90t-149 117z" />
<glyph unicode="&#xda;" horiz-adv-x="894" d="M88 418v981q0 27 21.5 31t150.5 4v-1020q0 -141 39 -211t158 -70q111 0 180 37v1229q0 27 21.5 31t146.5 4v-1381q-43 -29 -139.5 -51t-208.5 -22q-96 0 -165 23.5t-108 61t-61.5 97t-28.5 118t-6 138.5zM356 1669q63 74 161.5 157t113.5 83q27 0 48 -41t28 -84 q-23 -29 -127.5 -103.5t-159.5 -105.5q-16 0 -31.5 23.5t-23.5 48.5z" />
<glyph unicode="&#xdb;" horiz-adv-x="894" d="M88 418v981q0 27 21.5 31t150.5 4v-1020q0 -141 39 -211t158 -70q111 0 180 37v1229q0 27 21.5 31t146.5 4v-1381q-43 -29 -139.5 -51t-208.5 -22q-96 0 -165 23.5t-108 61t-61.5 97t-28.5 118t-6 138.5zM193 1628l231 252q12 6 35 6q27 0 51 -24q199 -201 199 -236 q0 -23 -36 -36t-83 -13q-106 109 -133 160q-117 -158 -154 -158q-79 0 -110 49z" />
<glyph unicode="&#xdc;" horiz-adv-x="894" d="M88 418v981q0 27 21.5 31t150.5 4v-1020q0 -141 39 -211t158 -70q111 0 180 37v1229q0 27 21.5 31t146.5 4v-1381q-43 -29 -139.5 -51t-208.5 -22q-96 0 -165 23.5t-108 61t-61.5 97t-28.5 118t-6 138.5zM211 1718q0 43 27.5 74t72.5 31q102 0 103 -105q0 -45 -28 -74.5 t-75 -29.5q-100 0 -100 104zM504 1718q0 43 26.5 74t71.5 31q102 0 103 -105q0 -45 -28 -74.5t-75 -29.5q-98 0 -98 104z" />
<glyph unicode="&#xdd;" horiz-adv-x="745" d="M12 1407q-6 18 15 23q23 4 174 4l82 -281q31 -98 63.5 -240.5t36.5 -187.5q4 43 39 185.5t63 242.5l72 250q8 23 30.5 27t149.5 4l-276 -842v-559q0 -25 -20.5 -29t-145.5 -4v580zM287 1669q63 74 161.5 157t112.5 83q27 0 48.5 -41t27.5 -84q-23 -29 -127 -103.5 t-160 -105.5q-16 0 -31.5 23.5t-23.5 48.5z" />
<glyph unicode="&#xde;" horiz-adv-x="737" d="M88 0v1393q0 27 21.5 34t93.5 7h51v-256h72q195 0 285.5 -96.5t90.5 -309.5q0 -236 -103 -341t-273 -105h-72v-293q0 -25 -22.5 -29t-143.5 -4zM254 483q4 0 43 -2t47 -2q88 0 131 73t43 241q0 240 -162 239q-82 0 -102 -4v-545z" />
<glyph unicode="&#xdf;" horiz-adv-x="952" d="M80 4q23 55 22 148l-6 974q0 160 87 239t243 79q209 0 310.5 -87t101.5 -208q0 -63 -35 -110.5t-77 -72t-77 -61.5t-35 -80q0 -35 33 -76.5t80 -86t94 -95.5t80 -125.5t33 -158.5q0 -139 -82 -220t-225 -81q-113 0 -178.5 29.5t-65.5 62.5q0 66 43 112q55 -55 164 -55 q74 0 116 38t42 112q0 59 -33 116.5t-79 105.5t-92 95t-79 104.5t-33 114.5q0 61 36 111.5t78 77t77.5 63.5t35.5 78q0 57 -57 99t-164 42q-98 0 -136 -58.5t-38 -197.5l6 -942q0 -61 -19.5 -84.5t-78.5 -23.5q-29 0 -52.5 5t-31.5 11z" />
<glyph unicode="&#xe0;" horiz-adv-x="724" d="M59 291q0 195 75 265.5t198 70.5q96 0 149 -27v162q0 70 -30.5 95.5t-96.5 25.5q-162 0 -270 -45q-23 41 -23 94q0 41 23 57q31 20 118 37.5t193 17.5q135 0 194.5 -57t59.5 -192v-109q0 -451 -12 -637q-117 -70 -285 -69q-66 0 -110.5 9t-90 38.5t-69 96.5t-23.5 167z M125 1376q8 45 29.5 86t48.5 41q12 0 126.5 -99t145.5 -142q-25 -92 -63 -93q-12 0 -138 90t-149 117zM233 295q0 -104 33 -140t101 -36q74 0 108 35q6 68 6 329q-39 18 -96 19q-72 0 -112 -42t-40 -165z" />
<glyph unicode="&#xe1;" horiz-adv-x="724" d="M59 291q0 195 75 265.5t198 70.5q96 0 149 -27v162q0 70 -30.5 95.5t-96.5 25.5q-162 0 -270 -45q-23 41 -23 94q0 41 23 57q31 20 118 37.5t193 17.5q135 0 194.5 -57t59.5 -192v-109q0 -451 -12 -637q-117 -70 -285 -69q-66 0 -110.5 9t-90 38.5t-69 96.5t-23.5 167z M233 295q0 -104 33 -140t101 -36q74 0 108 35q6 68 6 329q-39 18 -96 19q-72 0 -112 -42t-40 -165zM268 1260q63 74 161.5 156.5t113.5 82.5q27 0 48 -41t27 -84q-23 -29 -127 -103.5t-159 -105.5q-16 0 -32.5 23.5t-25.5 48.5z" />
<glyph unicode="&#xe2;" horiz-adv-x="724" d="M59 291q0 195 75 265.5t198 70.5q96 0 149 -27v162q0 70 -30.5 95.5t-96.5 25.5q-162 0 -270 -45q-23 41 -23 94q0 41 23 57q31 20 118 37.5t193 17.5q135 0 194.5 -57t59.5 -192v-109q0 -451 -12 -637q-117 -70 -285 -69q-66 0 -110.5 9t-90 38.5t-69 96.5t-23.5 167z M104 1219l232 251q12 6 35 7q27 0 51 -25q199 -201 199 -235q0 -23 -36 -36.5t-83 -13.5q-106 109 -133 160q-117 -158 -154 -158q-80 1 -111 50zM233 295q0 -104 33 -140t101 -36q74 0 108 35q6 68 6 329q-39 18 -96 19q-72 0 -112 -42t-40 -165z" />
<glyph unicode="&#xe3;" horiz-adv-x="724" d="M59 291q0 195 75 265.5t198 70.5q96 0 149 -27v162q0 70 -30.5 95.5t-96.5 25.5q-162 0 -270 -45q-23 41 -23 94q0 41 23 57q31 20 118 37.5t193 17.5q135 0 194.5 -57t59.5 -192v-109q0 -451 -12 -637q-117 -70 -285 -69q-66 0 -110.5 9t-90 38.5t-69 96.5t-23.5 167z M63 1278q94 154 232 154q45 0 91 -48.5t87 -48.5t67.5 19.5t40 39t25.5 19.5q16 0 30.5 -22.5t22.5 -47.5l7 -22q-18 -37 -81 -91t-143 -54q-47 0 -75.5 24.5t-50 49t-52.5 24.5q-41 0 -76.5 -40t-44.5 -40q-20 0 -39.5 21.5t-29.5 41.5zM233 295q0 -104 33 -140t101 -36 q74 0 108 35q6 68 6 329q-39 18 -96 19q-72 0 -112 -42t-40 -165z" />
<glyph unicode="&#xe4;" horiz-adv-x="724" d="M59 291q0 195 75 265.5t198 70.5q96 0 149 -27v162q0 70 -30.5 95.5t-96.5 25.5q-162 0 -270 -45q-23 41 -23 94q0 41 23 57q31 20 118 37.5t193 17.5q135 0 194.5 -57t59.5 -192v-109q0 -451 -12 -637q-117 -70 -285 -69q-66 0 -110.5 9t-90 38.5t-69 96.5t-23.5 167z M123 1309q0 43 27.5 73.5t72.5 30.5q102 0 103 -104q0 -45 -28 -75t-75 -30q-100 1 -100 105zM233 295q0 -104 33 -140t101 -36q74 0 108 35q6 68 6 329q-39 18 -96 19q-72 0 -112 -42t-40 -165zM416 1309q0 43 26.5 73.5t71.5 30.5q102 0 102 -104q0 -45 -27.5 -75 t-74.5 -30q-98 1 -98 105z" />
<glyph unicode="&#xe5;" horiz-adv-x="724" d="M59 291q0 195 75 265.5t198 70.5q96 0 149 -27v162q0 70 -30.5 95.5t-96.5 25.5q-162 0 -270 -45q-23 41 -23 94q0 41 23 57q31 20 118 37.5t193 17.5q135 0 194.5 -57t59.5 -192v-109q0 -451 -12 -637q-117 -70 -285 -69q-66 0 -110.5 9t-90 38.5t-69 96.5t-23.5 167z M164 1350q0 201 205 200q100 0 145 -44t45 -154q0 -201 -203 -201q-98 0 -145 45t-47 154zM233 295q0 -104 33 -140t101 -36q74 0 108 35q6 68 6 329q-39 18 -96 19q-72 0 -112 -42t-40 -165zM283 1348q0 -84 75 -84q84 0 84 88q0 84 -71 84q-88 0 -88 -88z" />
<glyph unicode="&#xe6;" horiz-adv-x="1189" d="M59 305q0 348 267 348q102 0 155 -26v147q0 121 -139 121q-152 0 -256 -55q-23 39 -23 100q0 31 23 49q82 55 317 55q164 0 201 -114q76 115 250 114q260 0 260 -325q0 -170 -22 -270q-96 -12 -183 -13q-125 0 -245 23q0 -139 20.5 -209t54 -88.5t99.5 -18.5 q139 0 249 64q14 -45 15 -150q0 -14 -38 -31.5t-105.5 -30.5t-139.5 -13q-137 0 -201 57q-100 -57 -266 -57q-68 0 -110.5 8t-90 37.5t-70 99t-22.5 178.5zM233 305q0 -117 32 -151.5t100 -34.5q90 0 116 33v360q-45 16 -96 16q-152 0 -152 -223zM668 594q111 -27 200 -27 q37 0 74 6q10 45 10 127q-2 113 -26.5 156t-89.5 43q-148 0 -168 -305z" />
<glyph unicode="&#xe7;" horiz-adv-x="641" d="M63 489q0 141 23 246t57.5 163t86 92t98.5 44t104 10q72 0 121 -26.5t49 -65.5q0 -47 -18 -92q-66 37 -144 37q-43 0 -73.5 -13.5t-62.5 -52t-49 -124.5t-17 -218q0 -209 42 -285.5t140 -76.5q88 0 162 47q16 -59 16 -90q0 -37 -50 -65.5t-130 -36.5l-21 -101h35 q41 0 70.5 -32.5t29.5 -98.5q0 -78 -46 -125t-117 -47l-115 25q12 72 27 84q10 6 19 1t30.5 -13.5t40.5 -8.5q66 0 65 70q0 68 -61 67l-84 -10l35 189q-90 6 -144.5 48t-86.5 153t-32 306z" />
<glyph unicode="&#xe8;" horiz-adv-x="739" d="M63 459q0 184 30 306t86.5 180.5t112.5 78.5t134 20q260 0 260 -329q0 -166 -22 -266q-174 -33 -428 -33q6 -158 49 -216.5t141 -58.5q121 0 233 64q14 -43 15 -113q0 -47 -83 -79.5t-200 -32.5q-78 0 -133 19t-101 69.5t-70 148t-24 242.5zM168 1376q8 45 29.5 86 t48.5 41q12 0 126.5 -99t145.5 -142q-25 -92 -63 -93q-12 0 -138 90t-149 117zM238 551q180 -4 276 22q10 45 10 123q-2 113 -26.5 158t-89.5 45q-154 0 -170 -348z" />
<glyph unicode="&#xe9;" horiz-adv-x="739" d="M63 459q0 184 30 306t86.5 180.5t112.5 78.5t134 20q260 0 260 -329q0 -166 -22 -266q-174 -33 -428 -33q6 -158 49 -216.5t141 -58.5q121 0 233 64q14 -43 15 -113q0 -47 -83 -79.5t-200 -32.5q-78 0 -133 19t-101 69.5t-70 148t-24 242.5zM238 551q180 -4 276 22 q10 45 10 123q-2 113 -26.5 158t-89.5 45q-154 0 -170 -348zM311 1260q63 74 161.5 156.5t113.5 82.5q27 0 48 -41t28 -84q-23 -29 -127.5 -103.5t-159.5 -105.5q-16 0 -31.5 23.5t-24.5 48.5z" />
<glyph unicode="&#xea;" horiz-adv-x="739" d="M63 459q0 184 30 306t86.5 180.5t112.5 78.5t134 20q260 0 260 -329q0 -166 -22 -266q-174 -33 -428 -33q6 -158 49 -216.5t141 -58.5q121 0 233 64q14 -43 15 -113q0 -47 -83 -79.5t-200 -32.5q-78 0 -133 19t-101 69.5t-70 148t-24 242.5zM147 1219l232 251q12 6 35 7 q27 0 51 -25q199 -201 199 -235q0 -23 -36 -36.5t-83 -13.5q-106 109 -133 160q-117 -158 -154 -158q-80 1 -111 50zM238 551q180 -4 276 22q10 45 10 123q-2 113 -26.5 158t-89.5 45q-154 0 -170 -348z" />
<glyph unicode="&#xeb;" horiz-adv-x="739" d="M63 459q0 184 30 306t86.5 180.5t112.5 78.5t134 20q260 0 260 -329q0 -166 -22 -266q-174 -33 -428 -33q6 -158 49 -216.5t141 -58.5q121 0 233 64q14 -43 15 -113q0 -47 -83 -79.5t-200 -32.5q-78 0 -133 19t-101 69.5t-70 148t-24 242.5zM166 1309q0 43 27.5 73.5 t72.5 30.5q102 0 103 -104q0 -45 -28 -75t-75 -30q-100 1 -100 105zM238 551q180 -4 276 22q10 45 10 123q-2 113 -26.5 158t-89.5 45q-154 0 -170 -348zM459 1309q0 43 26.5 73.5t71.5 30.5q102 0 102 -104q0 -45 -27.5 -75t-74.5 -30q-98 1 -98 105z" />
<glyph unicode="&#xec;" horiz-adv-x="358" d="M-59 1376q8 45 29.5 86t47.5 41q12 0 127 -99t146 -142q-25 -92 -64 -93q-12 0 -137.5 90t-148.5 117zM94 0v948q0 53 30 64.5t140 11.5v-991q0 -25 -21.5 -29t-148.5 -4z" />
<glyph unicode="&#xed;" horiz-adv-x="358" d="M86 1260q63 74 161.5 156.5t112.5 82.5q27 0 48.5 -41t27.5 -84q-23 -29 -127 -103.5t-159 -105.5q-16 0 -33 23.5t-23 48.5zM94 0v948q0 53 30 64.5t140 11.5v-991q0 -25 -21.5 -29t-148.5 -4z" />
<glyph unicode="&#xee;" horiz-adv-x="358" d="M-78 1219l232 251q12 6 34 7q27 0 52 -25q199 -201 198 -235q0 -23 -35.5 -36.5t-83.5 -13.5q-106 109 -133 160q-117 -158 -153 -158q-80 1 -111 50zM94 0v948q0 53 30 64.5t140 11.5v-991q0 -25 -21.5 -29t-148.5 -4z" />
<glyph unicode="&#xef;" horiz-adv-x="358" d="M-59 1309q0 43 27.5 73.5t72.5 30.5q102 0 102 -104q0 -45 -27.5 -75t-74.5 -30q-100 1 -100 105zM94 0v948q0 53 30 64.5t140 11.5v-991q0 -25 -21.5 -29t-148.5 -4zM233 1309q0 43 27 73.5t72 30.5q102 0 102 -104q0 -45 -27.5 -75t-74.5 -30q-99 1 -99 105z" />
<glyph unicode="&#xf0;" horiz-adv-x="870" d="M90 526q0 248 88 382t240 134q111 0 180 -59q-35 135 -111 248l-192 -76q-16 43 -24.5 63.5t-12.5 41t-1 29.5t15 16l119 45q-55 55 -106 98q18 35 52 55.5t69 20.5q41 0 61 -27q61 -53 88 -84l141 55q16 -43 24.5 -63.5t12.5 -41t1 -29.5t-15 -13l-72 -29 q162 -264 162 -700q0 -137 -14.5 -237.5t-50 -190.5t-107.5 -137t-178 -47q-190 0 -279.5 125.5t-89.5 420.5zM262 500q0 -381 193 -381q61 0 99 34.5t56.5 106.5t23.5 143.5t5 182.5q0 100 -10 207q-63 102 -166 102q-98 0 -149.5 -109.5t-51.5 -285.5z" />
<glyph unicode="&#xf1;" horiz-adv-x="782" d="M92 0v975q160 70 324 69q160 0 224.5 -62t64.5 -212v-737q0 -25 -23 -29t-150 -4v721q0 100 -24.5 139t-97.5 39q-84 0 -152 -37v-829q0 -25 -21.5 -29t-144.5 -4zM104 1278q94 154 232 154q45 0 91 -48.5t87 -48.5t67.5 19.5t40 39t25.5 19.5q16 0 30.5 -22.5 t22.5 -47.5l7 -22q-18 -37 -81 -91t-143 -54q-47 0 -75.5 24.5t-50 49t-52.5 24.5q-41 0 -76.5 -40t-44.5 -40q-20 0 -39.5 21.5t-29.5 41.5z" />
<glyph unicode="&#xf2;" horiz-adv-x="753" d="M49 512q0 532 340 532q168 0 243 -112.5t75 -413.5q0 -281 -84 -409.5t-252 -128.5q-86 0 -140.5 18t-98.5 73.5t-63.5 163t-19.5 277.5zM143 1376q8 45 30 86t48 41q12 0 127 -99t146 -142q-25 -92 -64 -93q-12 0 -138 90t-149 117zM229 508q0 -164 18.5 -251 t47.5 -111.5t80 -24.5q74 0 112.5 86t38.5 309q0 231 -32.5 307t-110.5 76q-76 0 -115 -84t-39 -307z" />
<glyph unicode="&#xf3;" horiz-adv-x="753" d="M49 512q0 532 340 532q168 0 243 -112.5t75 -413.5q0 -281 -84 -409.5t-252 -128.5q-86 0 -140.5 18t-98.5 73.5t-63.5 163t-19.5 277.5zM229 508q0 -164 18.5 -251t47.5 -111.5t80 -24.5q74 0 112.5 86t38.5 309q0 231 -32.5 307t-110.5 76q-76 0 -115 -84t-39 -307z M289 1260q63 74 161.5 156.5t112.5 82.5q27 0 48.5 -41t27.5 -84q-23 -29 -127 -103.5t-160 -105.5q-16 0 -32.5 23.5t-24.5 48.5z" />
<glyph unicode="&#xf4;" horiz-adv-x="753" d="M49 512q0 532 340 532q168 0 243 -112.5t75 -413.5q0 -281 -84 -409.5t-252 -128.5q-86 0 -140.5 18t-98.5 73.5t-63.5 163t-19.5 277.5zM125 1219l231 251q12 6 35 7q27 0 51 -25q199 -201 199 -235q0 -23 -36 -36.5t-83 -13.5q-106 109 -133 160q-117 -158 -153 -158 q-80 1 -111 50zM229 508q0 -164 18.5 -251t47.5 -111.5t80 -24.5q74 0 112.5 86t38.5 309q0 231 -32.5 307t-110.5 76q-76 0 -115 -84t-39 -307z" />
<glyph unicode="&#xf5;" horiz-adv-x="753" d="M49 512q0 532 340 532q168 0 243 -112.5t75 -413.5q0 -281 -84 -409.5t-252 -128.5q-86 0 -140.5 18t-98.5 73.5t-63.5 163t-19.5 277.5zM84 1278q94 154 231 154q45 0 91.5 -48.5t87.5 -48.5t67.5 19.5t39.5 39t26 19.5q16 0 30.5 -22.5t22.5 -47.5l6 -22 q-18 -37 -80.5 -91t-142.5 -54q-47 0 -76 24.5t-50.5 49t-51.5 24.5q-41 0 -77 -40t-44 -40q-20 0 -40 21.5t-30 41.5zM229 508q0 -164 18.5 -251t47.5 -111.5t80 -24.5q74 0 112.5 86t38.5 309q0 231 -32.5 307t-110.5 76q-76 0 -115 -84t-39 -307z" />
<glyph unicode="&#xf6;" horiz-adv-x="753" d="M49 512q0 532 340 532q168 0 243 -112.5t75 -413.5q0 -281 -84 -409.5t-252 -128.5q-86 0 -140.5 18t-98.5 73.5t-63.5 163t-19.5 277.5zM143 1309q0 43 28 73.5t73 30.5q102 0 102 -104q0 -45 -27.5 -75t-74.5 -30q-101 1 -101 105zM229 508q0 -164 18.5 -251 t47.5 -111.5t80 -24.5q74 0 112.5 86t38.5 309q0 231 -32.5 307t-110.5 76q-76 0 -115 -84t-39 -307zM436 1309q0 43 26.5 73.5t72.5 30.5q102 0 102 -104q0 -45 -27.5 -75t-74.5 -30q-99 1 -99 105z" />
<glyph unicode="&#xf7;" d="M70 504q0 88 5 116.5t29 28.5h682q0 -88 -5 -116.5t-27 -28.5h-684zM324 268q0 45 27.5 76t72.5 31q104 0 104 -107q0 -45 -28.5 -74.5t-75.5 -29.5q-100 0 -100 104zM324 874q0 45 27.5 76t72.5 31q104 0 104 -107q0 -45 -28.5 -74.5t-75.5 -29.5q-100 0 -100 104z" />
<glyph unicode="&#xf8;" horiz-adv-x="843" d="M35 16q0 14 92 170q-31 117 -31 326q0 532 340 532q154 0 226 -86q51 88 69 111q94 -27 94 -68q0 -25 -98 -192q29 -115 29 -291q0 -281 -83 -409.5t-249 -128.5q-164 0 -234 77q-10 -20 -26.5 -46.5t-25.5 -43t-11 -20.5q-31 6 -61.5 25t-30.5 44zM279 508 q0 -102 4 -143l258 460q-29 74 -109 74q-76 0 -114.5 -83t-38.5 -308zM307 207q29 -86 117 -86q72 0 111.5 86t39.5 309q0 90 -6 154q-51 -90 -262 -463z" />
<glyph unicode="&#xf9;" horiz-adv-x="798" d="M90 319v670q0 27 21.5 31t150.5 4v-719q0 -102 27.5 -141t109.5 -39t138 37v827q0 27 21.5 31t143.5 4v-971q-133 -74 -305 -73q-176 0 -241.5 79.5t-65.5 259.5zM162 1376q8 45 29.5 86t48.5 41q12 0 126.5 -99t145.5 -142q-25 -92 -63 -93q-12 0 -138 90t-149 117z" />
<glyph unicode="&#xfa;" horiz-adv-x="798" d="M90 319v670q0 27 21.5 31t150.5 4v-719q0 -102 27.5 -141t109.5 -39t138 37v827q0 27 21.5 31t143.5 4v-971q-133 -74 -305 -73q-176 0 -241.5 79.5t-65.5 259.5zM307 1260q63 74 161.5 156.5t113.5 82.5q27 0 48 -41t27 -84q-23 -29 -127 -103.5t-159 -105.5 q-16 0 -31.5 23.5t-24.5 48.5z" />
<glyph unicode="&#xfb;" horiz-adv-x="798" d="M90 319v670q0 27 21.5 31t150.5 4v-719q0 -102 27.5 -141t109.5 -39t138 37v827q0 27 21.5 31t143.5 4v-971q-133 -74 -305 -73q-176 0 -241.5 79.5t-65.5 259.5zM143 1219l232 251q12 6 35 7q27 0 51 -25q199 -201 198 -235q0 -23 -35.5 -36.5t-82.5 -13.5 q-106 109 -133 160q-117 -158 -154 -158q-80 1 -111 50z" />
<glyph unicode="&#xfc;" horiz-adv-x="798" d="M90 319v670q0 27 21.5 31t150.5 4v-719q0 -102 27.5 -141t109.5 -39t138 37v827q0 27 21.5 31t143.5 4v-971q-133 -74 -305 -73q-176 0 -241.5 79.5t-65.5 259.5zM162 1309q0 43 27.5 73.5t72.5 30.5q102 0 103 -104q0 -45 -28 -75t-75 -30q-100 1 -100 105zM455 1309 q0 43 26.5 73.5t71.5 30.5q102 0 102 -104q0 -45 -27.5 -75t-74.5 -30q-98 1 -98 105z" />
<glyph unicode="&#xfd;" horiz-adv-x="729" d="M-8 -315q0 61 24 94q47 -33 129 -33q109 0 150 221l-246 1012q-8 33 11.5 39t150.5 6l111 -487q10 -51 20 -117t16.5 -112t12.5 -88t6 -46q27 238 49 365l90 436q6 37 29.5 43t150.5 6l-252 -1079q-45 -193 -108.5 -266.5t-177.5 -73.5q-166 0 -166 80zM281 1260 q63 74 161.5 156.5t112.5 82.5q27 0 48.5 -41t27.5 -84q-23 -29 -127.5 -103.5t-159.5 -105.5q-16 0 -32.5 23.5t-24.5 48.5z" />
<glyph unicode="&#xfe;" horiz-adv-x="784" d="M94 -340v1770q0 53 29 64t137 11v-477q76 14 133 14q166 0 250 -94t84 -334q0 -156 -21.5 -274.5t-53 -185t-76 -108.5t-82 -54t-78.5 -12q-98 0 -156 53v-430q-39 -12 -98 -13q-43 0 -55.5 13.5t-12.5 56.5zM260 180q31 -57 105 -57q23 0 43 9t45.5 39t45 79t32 139 t12.5 211q0 125 -19.5 191.5t-51.5 86t-89 19.5q-68 0 -123 -43v-674z" />
<glyph unicode="&#xff;" horiz-adv-x="729" d="M-8 -315q0 61 24 94q47 -33 129 -33q109 0 150 221l-246 1012q-8 33 11.5 39t150.5 6l111 -487q10 -51 20 -117t16.5 -112t12.5 -88t6 -46q27 238 49 365l90 436q6 37 29.5 43t150.5 6l-252 -1079q-45 -193 -108.5 -266.5t-177.5 -73.5q-166 0 -166 80zM135 1309 q0 43 27.5 73.5t73.5 30.5q102 0 102 -104q0 -45 -27.5 -75t-74.5 -30q-101 1 -101 105zM428 1309q0 43 26.5 73.5t71.5 30.5q102 0 103 -104q0 -45 -28 -75t-75 -30q-98 1 -98 105z" />
<glyph unicode="&#x152;" horiz-adv-x="1210" d="M55 723q0 395 92.5 562t294.5 167q152 0 230 -84v31q2 35 35 35h462q0 -104 -4 -127t-26 -23h-328v-428h309q0 -102 -4 -128t-26 -26h-279v-552h350q0 -106 -4 -128t-27 -22h-458v82q-86 -100 -248 -100q-137 0 -215 64.5t-116 225t-38 451.5zM242 684q0 -293 41 -416 t149.5 -123t149.5 131.5t41 451t-37 443t-146 123.5q-106 0 -152 -140t-46 -470z" />
<glyph unicode="&#x153;" horiz-adv-x="1226" d="M55 512q0 530 338 530q174 0 246 -116q80 119 268 118q260 0 260 -325q0 -170 -22 -270q-162 -33 -428 -33q4 -172 43 -223.5t131 -51.5q137 0 250 64q14 -43 14 -148q0 -14 -38 -32.5t-105.5 -31.5t-139.5 -13q-186 0 -256 110q-80 -111 -235 -110q-119 0 -183.5 35.5 t-103.5 154.5t-39 342zM236 508q0 -164 18 -251t47 -111.5t80 -24.5q74 0 112.5 86t38.5 309q0 231 -32.5 307t-110.5 76q-76 0 -114.5 -84t-38.5 -307zM717 551q182 -4 278 22q10 45 11 127q-2 113 -27 156t-90 43q-158 0 -172 -348z" />
<glyph unicode="&#x178;" horiz-adv-x="745" d="M12 1407q-6 18 15 23q23 4 174 4l82 -281q31 -98 63.5 -240.5t36.5 -187.5q4 43 39 185.5t63 242.5l72 250q8 23 30.5 27t149.5 4l-276 -842v-559q0 -25 -20.5 -29t-145.5 -4v580zM139 1718q0 43 28 74t73 31q102 0 102 -105q0 -45 -27.5 -74.5t-74.5 -29.5 q-101 0 -101 104zM432 1718q0 43 26.5 74t71.5 31q102 0 103 -105q0 -45 -27.5 -74.5t-75.5 -29.5q-98 0 -98 104z" />
<glyph unicode="&#x2c6;" horiz-adv-x="516" d="M0 1219l231 251q12 6 35 7q27 0 51 -25q199 -201 199 -235q0 -23 -36 -36.5t-83 -13.5q-106 109 -133 160q-117 -158 -153 -158q-80 1 -111 50z" />
<glyph unicode="&#x2dc;" horiz-adv-x="602" d="M0 1278q94 154 231 154q45 0 91.5 -48.5t87.5 -48.5t67.5 19.5t39.5 39t26 19.5q16 0 30.5 -22.5t20.5 -47.5l8 -22q-18 -37 -80.5 -91t-142.5 -54q-47 0 -76 24.5t-50.5 49t-51.5 24.5q-41 0 -77 -40t-44 -40q-20 0 -40 21.5t-30 41.5z" />
<glyph unicode="&#x2000;" horiz-adv-x="978" />
<glyph unicode="&#x2001;" horiz-adv-x="1959" />
<glyph unicode="&#x2002;" horiz-adv-x="978" />
<glyph unicode="&#x2003;" horiz-adv-x="1959" />
<glyph unicode="&#x2004;" horiz-adv-x="653" />
<glyph unicode="&#x2005;" horiz-adv-x="489" />
<glyph unicode="&#x2006;" horiz-adv-x="325" />
<glyph unicode="&#x2007;" horiz-adv-x="325" />
<glyph unicode="&#x2008;" horiz-adv-x="243" />
<glyph unicode="&#x2009;" horiz-adv-x="391" />
<glyph unicode="&#x200a;" horiz-adv-x="108" />
<glyph unicode="&#x2010;" horiz-adv-x="569" d="M76 504q0 88 5 116.5t28 28.5h385q0 -88 -5.5 -116.5t-29.5 -28.5h-383z" />
<glyph unicode="&#x2011;" horiz-adv-x="569" d="M76 504q0 88 5 116.5t28 28.5h385q0 -88 -5.5 -116.5t-29.5 -28.5h-383z" />
<glyph unicode="&#x2012;" horiz-adv-x="569" d="M76 504q0 88 5 116.5t28 28.5h385q0 -88 -5.5 -116.5t-29.5 -28.5h-383z" />
<glyph unicode="&#x2013;" horiz-adv-x="868" d="M76 504q0 88 5 116.5t28 28.5h684q0 -88 -5.5 -116.5t-29.5 -28.5h-682z" />
<glyph unicode="&#x2014;" horiz-adv-x="1433" d="M12 504q0 88 5.5 116.5t27.5 28.5h1376q0 -88 -5 -116.5t-30 -28.5h-1374z" />
<glyph unicode="&#x2018;" horiz-adv-x="358" d="M70 1298q0 102 59 216t94 114q51 0 66 -47q-43 -80 -51 -197q47 -29 47 -100q0 -45 -30 -75.5t-75 -30.5q-110 -1 -110 120z" />
<glyph unicode="&#x2019;" horiz-adv-x="358" d="M70 1219q43 80 51 196q-47 29 -47 101q0 47 28.5 76.5t73.5 29.5q113 0 113 -121q0 -102 -59.5 -216t-94.5 -114q-55 1 -65 48z" />
<glyph unicode="&#x201a;" horiz-adv-x="350" d="M70 -186q43 78 51 196q-47 29 -47 101q0 45 28.5 75.5t73.5 30.5q113 0 113 -121q0 -104 -59.5 -216.5t-94.5 -112.5q-55 0 -65 47z" />
<glyph unicode="&#x201c;" horiz-adv-x="665" d="M70 1298q0 102 59 216t94 114q51 0 66 -47q-43 -80 -51 -197q47 -29 47 -100q0 -45 -30 -75.5t-75 -30.5q-110 -1 -110 120zM377 1298q0 102 60.5 216t92.5 114q55 0 66 -47q-43 -80 -51 -197q47 -29 47 -100q0 -45 -28.5 -75.5t-74.5 -30.5q-112 -1 -112 120z" />
<glyph unicode="&#x201d;" horiz-adv-x="665" d="M70 1219q43 80 51 196q-47 29 -47 101q0 47 28.5 76.5t73.5 29.5q113 0 113 -121q0 -102 -59.5 -216t-94.5 -114q-55 1 -65 48zM379 1219q41 80 49 196q-47 29 -47 101q0 47 29.5 76.5t74.5 29.5q113 0 113 -121q0 -102 -60.5 -216t-95.5 -114q-53 1 -63 48z" />
<glyph unicode="&#x201e;" horiz-adv-x="659" d="M70 -186q43 78 51 196q-47 29 -47 101q0 45 28.5 75.5t73.5 30.5q113 0 113 -121q0 -104 -59.5 -216.5t-94.5 -112.5q-55 0 -65 47zM379 -186q41 78 49 196q-47 29 -47 101q0 45 29.5 75.5t74.5 30.5q113 0 113 -121q0 -104 -60.5 -216.5t-95.5 -112.5q-53 0 -63 47z" />
<glyph unicode="&#x2022;" horiz-adv-x="456" d="M84 582q0 66 41 111.5t108 45.5q154 0 154 -157q0 -68 -42 -112t-112 -44q-149 0 -149 156z" />
<glyph unicode="&#x2026;" horiz-adv-x="1069" d="M72 104q0 49 30.5 84t83.5 35q115 0 115 -119q0 -51 -30.5 -83.5t-84.5 -32.5q-114 -1 -114 116zM420 104q0 49 30.5 84t84.5 35q115 0 114 -119q0 -51 -30.5 -83.5t-83.5 -32.5q-115 -1 -115 116zM768 104q0 49 30.5 84t84.5 35q115 0 114 -119q0 -51 -30.5 -83.5 t-83.5 -32.5q-115 -1 -115 116z" />
<glyph unicode="&#x202f;" horiz-adv-x="391" />
<glyph unicode="&#x2039;" horiz-adv-x="505" d="M37 512q0 31 73.5 159t147.5 240l76 113q29 0 54.5 -20.5t35.5 -40.5l10 -23q-2 -78 -241 -428q246 -340 245 -416q-4 -10 -11 -26.5t-32.5 -43t-54.5 -26.5q-303 438 -303 512z" />
<glyph unicode="&#x203a;" horiz-adv-x="505" d="M66 96q0 33 61 137.5t123 192.5l61 86q-240 350 -239 428q0 25 24.5 46.5t48.5 29.5l25 8q299 -442 299 -512q0 -33 -76 -161t-151 -240l-76 -111q-10 2 -27.5 9t-45 31.5t-27.5 55.5z" />
<glyph unicode="&#x205f;" horiz-adv-x="489" />
<glyph unicode="&#x20ac;" d="M33 406q0 80 12 108.5t53 28.5h111v18q0 92 4 133h-180q0 80 12 110t53 30h129q20 125 61.5 209.5t96.5 125.5t106.5 56.5t114.5 15.5q72 0 120 -15.5t65.5 -32.5t17.5 -34q0 -76 -27 -112q-61 43 -135 43q-182 0 -237 -256h292q0 -80 -12 -110t-53 -30h-246 q-4 -39 -4 -127v-24h248q0 -78 -12.5 -107.5t-53.5 -29.5h-176q14 -160 62.5 -211.5t136.5 -51.5q111 0 180 52q25 -45 25 -107q0 -35 -71 -70.5t-167 -35.5q-78 0 -130 15t-100 59t-77 130t-39 220h-180z" />
<glyph unicode="&#x2122;" horiz-adv-x="1030" d="M61 1354v61l19 19h389v-62l-20 -18h-136v-553q0 -14 -10 -16.5t-74 -2.5v572h-168zM520 782v633q0 18 21 19h57l90 -258l39 -113q20 74 33 108l82 244q4 18 18 19h66v-633q0 -14 -10.5 -16.5t-75.5 -2.5l2 228q2 70 16 237l-51 -164l-57 -151q-2 -8 -11 -8h-43l-59 159 l-51 172q16 -174 16 -245l2 -209q0 -14 -11.5 -16.5t-72.5 -2.5z" />
<glyph unicode="&#xe000;" horiz-adv-x="1025" d="M0 1025h1025v-1025h-1025v1025z" />
<glyph unicode="&#xfb01;" horiz-adv-x="823" d="M20 883q0 100 6.5 120.5t36.5 20.5h99v123q0 117 31.5 193.5t89 112.5t115 48t132.5 12q236 0 236 -100q0 -51 -16 -96q-94 45 -213 45q-100 0 -154.5 -41t-54.5 -170v-127h143q0 -96 -6 -118.5t-29 -22.5h-108v-850q0 -33 -33 -33h-133v883h-142zM563 0v948 q0 53 30 64.5t138 11.5v-991q0 -25 -21.5 -29t-146.5 -4z" />
<glyph unicode="&#xfb02;" horiz-adv-x="843" d="M20 883q0 100 6.5 120.5t36.5 20.5h99v123q0 365 321 364q156 0 267 -69v-1409q0 -33 -33 -33h-133v1360q-43 14 -90 14q-33 0 -56.5 -6t-51.5 -24.5t-43 -61.5t-15 -108v-150h164q0 -98 -5.5 -119.5t-29.5 -21.5h-129v-850q0 -33 -35 -33h-131v883h-142z" />
<glyph unicode="&#xfb03;" horiz-adv-x="1241" d="M20 883q0 100 6.5 120.5t36.5 20.5h99v141q0 338 321 338q109 0 205 -57q88 68 258 67q236 0 236 -100q0 -45 -19 -96q-94 45 -213 45q-100 0 -154.5 -41t-54.5 -170v-127h144q0 -98 -5.5 -119.5t-29.5 -21.5h-109v-850q0 -33 -32 -33h-134v883h-247v-850q0 -33 -35 -33 h-131v883h-142zM328 1024h247v123q0 113 29 186q-51 29 -121 29q-156 0 -155 -178v-160zM977 0v948q0 53 29.5 64.5t140.5 11.5v-991q0 -25 -21.5 -29t-148.5 -4z" />
<glyph unicode="&#xfb04;" horiz-adv-x="1261" d="M20 883q0 100 6.5 120.5t36.5 20.5h99v141q0 338 321 338q111 0 201 -55q80 66 213 65q154 0 270 -69v-1411q0 -25 -20.5 -29t-147.5 -4v1350q-39 14 -90 14q-35 0 -60.5 -6t-52 -23.5t-41 -58.5t-14.5 -105v-147h142q0 -98 -5.5 -119.5t-29.5 -21.5h-107v-850 q0 -33 -32 -33h-134v883h-247v-850q0 -33 -35 -33h-131v883h-142zM328 1024h247v123q0 113 29 186q-51 29 -121 29q-156 0 -155 -178v-160z" />
</font>
</defs>
</svg>
