<?xml version="1.0" standalone="no"?>
<!DOCTYPE svg PUBLIC "-//W3C//DTD SVG 1.1//EN" "http://www.w3.org/Graphics/SVG/1.1/DTD/svg11.dtd" >
<svg xmlns="http://www.w3.org/2000/svg">
<metadata>
This is a custom SVG webfont generated by Font Squirrel.
Copyright   : Copyright c 2010 Yanone httpyanonedetypedesign All rights reservedThis Font Software is licensed under the SIL Open Font License Version 11This license is available with a FAQ at httpscriptssilorgOFL
Designer    : Yanone
Foundry     : Yanone
Foundry URL : httpyanonedetypedesign
</metadata>
<defs>
<font id="YanoneKaffeesatzThin" horiz-adv-x="911" >
<font-face units-per-em="2048" ascent="1638" descent="-410" />
<missing-glyph horiz-adv-x="378" />
<glyph unicode=" "  horiz-adv-x="378" />
<glyph unicode="&#x09;" horiz-adv-x="378" />
<glyph unicode="&#xa0;" horiz-adv-x="378" />
<glyph unicode="!" horiz-adv-x="376" d="M123 63q0 29 17.5 49.5t45.5 20.5q31 0 49.5 -20.5t18.5 -49.5q0 -33 -18.5 -52t-49.5 -19q-63 -1 -63 71zM154 1427q0 6 4 10.5t14 6.5t23.5 3t33.5 1l-4 -1065q-2 -31 -67 -31z" />
<glyph unicode="&#x22;" horiz-adv-x="460" d="M80 1505q0 96 6 101h72q4 -72 -7.5 -237t-17.5 -171l-41 -2q-12 57 -12 309zM303 1505q0 96 6 101h72q4 -74 -7.5 -238t-19.5 -170q-4 -6 -39 -2q-12 57 -12 309z" />
<glyph unicode="#" d="M94 422q0 41 3 51t20 10h125l16 287h-164q0 43 3 52t20 9h143l10 166q2 16 12.5 19.5t53.5 3.5l-10 -189h262l10 166q2 16 12.5 19.5t53.5 3.5l-11 -189h162q0 -41 -3 -51t-19 -10h-144l-14 -287h180q0 -41 -3 -51t-19 -10h-162l-8 -180q-2 -16 -12.5 -19.5t-53.5 -3.5 l10 203h-264l-8 -180q-2 -16 -12.5 -19.5t-53.5 -3.5l11 203h-146zM307 483h262l17 287h-264z" />
<glyph unicode="$" d="M158 70q0 8 10 24.5t22 22.5q72 -63 232 -64q270 0 270 258q0 72 -34.5 135.5t-120.5 143.5l-230 201q-141 131 -141 241q0 96 73.5 158.5t204.5 71.5v208q0 23 12.5 30t49.5 7v-243q72 -2 128 -17.5t77.5 -29t21.5 -17.5q0 -37 -22 -53q-78 53 -228 53q-250 0 -250 -172 q0 -82 121 -194l256 -224q84 -74 117 -142.5t33 -156.5q0 -297 -281 -321v-203q0 -20 -12 -27.5t-49 -7.5v234q-84 0 -147.5 17t-88 36t-24.5 31z" />
<glyph unicode="%" horiz-adv-x="1492" d="M152 1071q0 379 290 379q139 0 206 -84t67 -295q0 -184 -73 -279.5t-208 -95.5q-72 0 -119 13.5t-87 52.5t-58 114.5t-18 194.5zM219 1061q0 -176 50 -241.5t157 -65.5q104 0 163.5 80.5t59.5 238.5q0 178 -51 247t-156 69q-223 0 -223 -328zM270 12l893 1438 q43 -10 43 -33l-893 -1433q-43 1 -43 28zM778 358q0 379 291 379q139 0 205.5 -84t66.5 -295q0 -184 -72.5 -279t-207.5 -95q-72 0 -119 13t-87 52t-58.5 114.5t-18.5 194.5zM846 348q0 -176 50 -241.5t157 -65.5q104 0 163.5 81t59.5 238q0 178 -51 247t-156 69 q-223 0 -223 -328z" />
<glyph unicode="&#x26;" horiz-adv-x="1069" d="M90 354q0 121 70.5 222.5t171.5 154.5q-174 281 -174 432q0 283 342 283q80 0 148.5 -15.5t103 -34t34.5 -32.5q0 -31 -16 -47q-102 68 -268 67q-123 0 -199 -48t-76 -179q0 -137 170 -395t385 -500q53 129 54 295q0 158 -61.5 284t-151.5 179q104 10 200 10 q141 0 199 -4q2 -8 2 -33q0 -16 -15.5 -21t-66.5 -5l-188 4q51 -45 99 -152.5t48 -273.5q0 -203 -67 -340q125 -135 176 -168q-2 -14 -15.5 -34.5t-29.5 -20.5q-25 0 -170 155q-115 -158 -332 -157q-373 -1 -373 374zM160 348q0 -55 12 -103t43 -95.5t92.5 -76t149.5 -28.5 q190 0 286 148q-221 250 -374 481q-88 -43 -148.5 -128t-60.5 -198z" />
<glyph unicode="'" horiz-adv-x="237" d="M80 1505q0 96 6 101h72q4 -72 -7.5 -237t-17.5 -171l-41 -2q-12 57 -12 309z" />
<glyph unicode="(" horiz-adv-x="604" d="M150 662q0 186 36.5 356t88 280.5t106.5 193.5t93 121t46 38q18 0 35 -47q-53 -55 -102.5 -127t-106.5 -186.5t-92 -278.5t-35 -348q0 -199 37 -381.5t97.5 -310.5t108.5 -206.5t93 -127.5q-10 -45 -41 -46q-12 0 -50 44.5t-92.5 138.5t-103.5 215t-83.5 301.5 t-34.5 370.5z" />
<glyph unicode=")" horiz-adv-x="604" d="M49 -362q45 51 94.5 128.5t108.5 205.5t97 310.5t38 381.5q0 184 -35 347t-92 277.5t-107.5 187t-103.5 128.5q16 47 37 47q8 0 45 -37t92.5 -121t106.5 -194.5t88 -280.5t37 -356q0 -188 -35 -367.5t-84 -301.5t-102.5 -216t-91.5 -139.5t-50 -45.5q-33 1 -43 46z" />
<glyph unicode="*" horiz-adv-x="968" d="M51 1069q-2 31 19.5 54.5t40.5 13.5l303 -152q2 -16 -5.5 -26.5t-19.5 -4.5zM168 590l244 291q16 20 39 -11l-213 -319q-18 -16 -38 -1t-32 40zM440 1376q0 16 24.5 18.5t53.5 -12.5l-18 -350q-2 -25 -39 -18zM508 860q-12 20 22 33l228 -311q12 -16 -7.5 -36t-50.5 -24z M553 948q-29 33 6 49l330 142q23 -12 30 -42t-14 -36z" />
<glyph unicode="+" d="M98 543q0 45 3 56t20 11h305v303q0 16 10 19.5t56 3.5v-326h323q0 -45 -3 -56t-19 -11h-301v-301q0 -16 -11.5 -19.5t-54.5 -3.5v324h-328z" />
<glyph unicode="," horiz-adv-x="360" d="M104 -203q63 109 62 207q-33 18 -33 66q0 29 16.5 46t45.5 17q31 0 45 -16.5t14 -59.5q0 -82 -46 -185t-71 -103q-10 0 -20.5 9t-12.5 19z" />
<glyph unicode="-" horiz-adv-x="614" d="M98 543q0 45 3 56t20 11h395q0 -45 -3 -56t-19 -11h-396z" />
<glyph unicode="." horiz-adv-x="360" d="M121 63q0 29 17.5 49.5t45.5 20.5q31 0 50.5 -20.5t19.5 -49.5q0 -31 -19.5 -51t-50.5 -20q-63 -1 -63 71z" />
<glyph unicode="/" horiz-adv-x="579" d="M20 -41l465 1583q4 18 16.5 21.5t57.5 3.5l-461 -1585q-6 -16 -19.5 -19.5t-58.5 -3.5z" />
<glyph unicode="0" d="M86 606q0 309 91 466t294 157q195 0 273.5 -145.5t78.5 -469.5q0 -317 -88 -473.5t-284 -156.5q-193 0 -279 148t-86 474zM156 588q0 -283 71.5 -412t221.5 -129q166 0 236.5 142.5t70.5 431.5q0 287 -62.5 415.5t-220.5 128.5q-168 0 -242.5 -145t-74.5 -432z" />
<glyph unicode="1" d="M86 59q0 6 350 7l31 1089l-295 -57q-8 16 -8 59q0 2 169 38t179 36l23 -6l-25 -1159h207l106 4q0 -70 -4 -70h-731q-2 4 -2 59z" />
<glyph unicode="2" d="M86 35q0 14 5 23.5t18.5 27.5t23.5 35q59 92 168 213t190.5 207t146 202.5t64.5 227.5q0 94 -44 143t-169 49q-227 0 -348 -86q-8 27 -8 53q0 14 40 37t125 42.5t187 19.5q170 0 228.5 -62.5t58.5 -199.5q0 -96 -40 -192.5t-110.5 -184.5t-144.5 -166t-161 -177.5 t-142 -180.5h467l182 2q0 -68 -6 -68h-723q-8 8 -8 35z" />
<glyph unicode="3" d="M106 -123q0 20 11 57q92 -74 231 -73q170 0 276.5 132t106.5 329q0 63 -20.5 108t-50 70.5t-80 41t-91 21.5t-104.5 10l-2 54q299 184 299 364q0 66 -46 119t-165 53q-219 0 -346 -90q-8 16 -8 51q0 20 39 44t124 42.5t189 18.5q285 0 285 -236q0 -180 -262 -370 q309 -25 309 -308q0 -225 -126 -372.5t-335 -147.5q-74 0 -130 15.5t-80 34t-24 32.5z" />
<glyph unicode="4" d="M96 393q0 117 151.5 394.5t323.5 435.5q14 12 37 12q14 0 35 -10l-6 -803h194l3 -29q0 -37 -21 -37h-176v-323q0 -25 -7 -29t-61 -4v356h-460q-13 12 -13 37zM162 422h407l13 721q-131 -139 -253 -335t-167 -386z" />
<glyph unicode="5" d="M88 -125q0 31 10 57q84 -72 240 -71q397 0 397 538q0 82 -28.5 143.5t-69.5 96.5t-99.5 55.5t-104.5 26.5t-97 6q-121 0 -225 -35l53 537h627q0 -45 -7.5 -55.5t-38.5 -10.5l-520 2l-43 -391h6l21 5q12 3 30.5 5t47 3t59.5 1q57 2 113.5 -4t121 -30.5t112.5 -65.5 t80 -115.5t32 -175.5q0 -291 -108.5 -446.5t-364.5 -155.5q-74 0 -132.5 14.5t-85 33t-26.5 32.5z" />
<glyph unicode="6" d="M92 588q0 434 132 640t341 206q94 0 160 -13.5t66 -38.5q0 -31 -7 -49q-94 35 -231 35q-160 0 -273.5 -179t-123.5 -519q51 111 141 168t209 57q147 0 234 -98.5t87 -300.5q0 -514 -391 -514q-106 0 -177 43t-105.5 130t-48 187.5t-13.5 245.5zM156 573q0 -117 10 -201.5 t37.5 -163.5t86 -120t146.5 -41q158 0 242 116t84 316q0 350 -270 350q-106 0 -194.5 -66.5t-141.5 -189.5z" />
<glyph unicode="7" d="M119 1229h737q-434 -604 -610 -1397q-68 0 -68 14q98 428 251 767t310 552h-36q-34 0 -91 -1t-128 -1h-161h-180q-24 0 -24 66z" />
<glyph unicode="8" d="M94 369q0 133 83 243.5t202 163.5q-92 43 -133 72q-137 90 -137 258q0 166 102 253t254 87q348 0 348 -330q0 -203 -266 -352q86 -43 141 -88q143 -119 143 -307q0 -184 -90 -285.5t-266 -101.5q-186 0 -283.5 104.5t-97.5 282.5zM160 369q0 -143 81 -232.5t232 -89.5 q141 0 218 87t77 235q0 156 -141 274q-51 41 -168 96q-125 -39 -212 -142t-87 -228zM174 1108q0 -139 139 -229q29 -20 160 -78q119 49 198 130t79 183q0 266 -283 266q-125 0 -209 -68.5t-84 -203.5z" />
<glyph unicode="9" d="M86 727q0 522 393 522q205 0 274.5 -143t69.5 -469q0 -848 -518 -848q-164 0 -164 35t6 47q66 -16 154 -16q428 0 457 694q-111 -219 -342 -219q-145 0 -237.5 100t-92.5 297zM154 743q0 -176 75.5 -262t202.5 -86q197 0 328 246q0 98 -4 168t-21.5 145.5t-46.5 121.5 t-82 77t-127 31q-325 -1 -325 -441z" />
<glyph unicode=":" horiz-adv-x="360" d="M119 63q0 29 18.5 49.5t46.5 20.5q31 0 49.5 -20.5t18.5 -49.5q0 -31 -19.5 -51t-48.5 -20q-65 -1 -65 71zM119 793q0 29 18.5 49t46.5 20q31 0 49.5 -19.5t18.5 -50t-19.5 -51t-48.5 -20.5q-65 0 -65 72z" />
<glyph unicode=";" horiz-adv-x="360" d="M100 -203q63 106 64 207q-35 16 -35 66q0 29 16.5 46t44.5 17q61 0 62 -76q0 -82 -46 -185t-73 -103q-25 -1 -33 28zM125 793q0 29 18.5 49t46.5 20q31 0 49.5 -19.5t18.5 -50t-19.5 -51t-48.5 -20.5q-65 0 -65 72z" />
<glyph unicode="&#x3c;" horiz-adv-x="819" d="M98 535q0 27 27 40l557 277q23 -25 23 -47q0 -18 -15 -25l-502 -248l525 -225q0 -25 -11.5 -40t-21.5 -15q-8 0 -43 12l-524 230q-15 21 -15 41z" />
<glyph unicode="=" d="M98 375q0 45 3 56t20 11h694q0 -45 -3 -56t-19 -11h-695zM98 711q0 45 3 56t20 11h694q0 -45 -3 -56t-19 -11h-695z" />
<glyph unicode="&#x3e;" horiz-adv-x="819" d="M104 786q2 27 12.5 42.5t20.5 15.5q6 0 43 -15l527 -229q12 -14 12 -41q0 -29 -25 -39l-559 -276q-23 25 -22 45q0 16 14 26l502 246z" />
<glyph unicode="?" horiz-adv-x="606" d="M59 1372q0 25 73 53.5t159 28.5q121 0 204 -64.5t83 -228.5q0 -104 -43 -193t-118 -181.5t-89 -116.5q-49 -82 -49 -176q0 -25 3 -50.5t6 -38t1 -14.5q-10 -16 -60 -6q-18 41 -18 109q0 104 57 202q20 35 91 122t110 167t39 172q0 229 -223 229q-129 0 -219 -67 q-7 24 -7 53zM199 63q0 29 17 49.5t46 20.5q31 0 49.5 -20.5t18.5 -49.5q0 -31 -18.5 -51t-49.5 -20q-63 -1 -63 71z" />
<glyph unicode="@" horiz-adv-x="1572" d="M119 543q0 862 727 862q317 0 464.5 -164t147.5 -524q0 -141 -15.5 -255t-38 -185.5t-55 -126t-61 -81t-63.5 -42t-55.5 -18.5t-41.5 -3q-80 0 -129 53q-84 -57 -233 -57q-125 -4 -194.5 59.5t-63.5 243.5q6 182 97 254t249 72q84 0 129 -13q2 78 4 134q4 111 -46 151.5 t-150 40.5q-143 0 -234 -49q-6 14 -6 39q0 18 18 31q82 43 246 43q123 0 181.5 -56.5t54.5 -189.5l-17 -465q-6 -158 -10 -186v-2q41 -43 102 -43q23 0 49.5 9t67.5 48t73 104.5t54.5 192.5t22.5 297q0 330 -129 478t-422 148q-657 0 -658 -808q0 -229 34 -390t85 -251.5 t138 -140.5t169 -63.5t201 -13.5q258 0 479 123q18 -18 19 -59q0 -14 -57.5 -42t-178.5 -55.5t-256 -27.5q-92 0 -157.5 5t-144.5 26.5t-132 59.5t-107.5 106.5t-86 166t-51 240t-19.5 324.5zM569 303q-4 -147 51.5 -196.5t159.5 -49.5q61 0 123 24.5t64 51.5l14 432 q-61 10 -127 10q-129 0 -204 -60t-81 -212z" />
<glyph unicode="A" horiz-adv-x="892" d="M18 0l404 1436q0 8 18 8q20 0 27 -6l405 -1415q1 -4 1 -8q0 -17 -25 -17q-29 0 -43 2l-119 424h-479l-111 -410q-6 -16 -37 -16q-23 0 -41 2zM223 487h447l-125 451q-92 332 -101 405q-6 -55 -98 -405z" />
<glyph unicode="B" horiz-adv-x="829" d="M131 0v1401q0 33 51 33h205q342 0 342 -310q0 -168 -63.5 -243.5t-143.5 -87.5q39 -2 75 -14.5t79 -42t69.5 -93t26.5 -154.5q0 -131 -31.5 -227t-74.5 -144t-104.5 -77t-101.5 -35t-85 -6h-244zM199 63h174q328 0 327 420q0 92 -23.5 148.5t-74.5 81t-99 32t-132 7.5 h-172v-689zM199 815h198q262 0 262 303q0 254 -278 254h-182v-557z" />
<glyph unicode="C" horiz-adv-x="745" d="M92 641q0 213 24.5 368.5t60.5 239.5t92.5 132.5t104.5 60.5t111 12q82 0 136.5 -32.5t54.5 -65.5q0 -23 -17 -43q-76 76 -174 76q-53 0 -93 -12.5t-85 -57.5t-74.5 -124t-49 -222.5t-19.5 -339.5q0 -147 16.5 -257t42 -170.5t64.5 -97t73.5 -47t77.5 -10.5 q72 0 138.5 37t95.5 78q16 -25 16 -47q0 -43 -79 -91t-177 -48q-43 0 -73.5 5t-74.5 24.5t-75 63.5t-59.5 113.5t-43 185t-14.5 269.5z" />
<glyph unicode="D" horiz-adv-x="880" d="M135 0v1401q0 33 49 33h207q199 0 298 -153t99 -486q0 -199 -22.5 -345.5t-59 -231.5t-93 -135t-110.5 -66.5t-126 -16.5h-242zM203 66h174q59 0 103 14t91 59t78 123t50.5 213t19.5 322q0 299 -80 435t-256 136h-180v-1302z" />
<glyph unicode="E" horiz-adv-x="718" d="M137 0v1411q0 23 23 23h489q0 -45 -2 -55.5t-12 -10.5h-430v-551h401q0 -63 -18 -63h-383v-688h446q0 -45 -2 -55.5t-16 -10.5h-496z" />
<glyph unicode="F" horiz-adv-x="694" d="M137 0v1411q0 23 23 23h489q0 -43 -2 -53.5t-12 -10.5h-430v-551h401q0 -66 -18 -65h-383v-731q0 -23 -23 -23h-45z" />
<glyph unicode="G" horiz-adv-x="839" d="M92 704.5q0 223.5 30 375t89 231.5t131 111.5t172 31.5q88 0 150.5 -25.5t62.5 -58.5q0 -23 -12 -43q-80 61 -191 62q-86 0 -147.5 -29t-113.5 -101.5t-77.5 -211t-25.5 -340.5q0 -172 17.5 -295t44 -192.5t70.5 -109.5t85 -51.5t98 -11.5q80 0 136.5 33t70.5 65v586 h-240v41q0 23 23 23h283v-680q-84 -135 -277 -135q-90 0 -152.5 27.5t-117 102t-82 223t-27.5 372z" />
<glyph unicode="H" horiz-adv-x="923" d="M131 0v1411q0 16 9.5 19.5t58.5 3.5v-615h526v592q0 16 9 19.5t59 3.5v-1411q0 -16 -9.5 -19.5t-58.5 -3.5v754h-526v-731q0 -16 -9.5 -19.5t-58.5 -3.5z" />
<glyph unicode="I" horiz-adv-x="329" d="M131 0v1395q0 29 9.5 34t58.5 5v-1411q0 -16 -9.5 -19.5t-58.5 -3.5z" />
<glyph unicode="J" horiz-adv-x="610" d="M43 76q0 29 18 47q68 -78 175 -78q61 0 99 25.5t53 81t19.5 100.5t4.5 125v1020q0 29 8 33t59 4v-1084q0 -78 -6 -129t-27.5 -113.5t-74 -95t-131.5 -32.5q-84 0 -140.5 30.5t-56.5 65.5z" />
<glyph unicode="K" horiz-adv-x="802" d="M131 0v1411q0 16 8 19.5t60 3.5v-621l483 617q14 4 43 4q47 0 20 -33l-481 -596q301 -164 492 -776q2 -7 2 -13q0 -18 -25 -18q-27 0 -39 2q-102 293 -191 440.5t-190 247.5q-43 41 -114 70v-735q0 -16 -8.5 -19.5t-59.5 -3.5z" />
<glyph unicode="L" horiz-adv-x="694" d="M131 0v1401q0 25 9.5 29t62.5 4v-1371h450v-40q0 -23 -22 -23h-500z" />
<glyph unicode="M" horiz-adv-x="1038" d="M131 0v1411q0 23 23 23h39l245 -801l80 -260q72 240 76 252l244 786l2 6q4 6 8 11.5t12 5.5h45v-1411q0 -16 -8 -19.5t-59 -3.5l2 670q0 238 4 553q-20 -66 -62.5 -203t-76 -243.5t-33.5 -108.5l-125 -377q-6 -18 -23 -19h-37l-122 396q-14 31 -172 544q0 -444 6 -524 v-665q0 -16 -9.5 -19.5t-58.5 -3.5z" />
<glyph unicode="N" horiz-adv-x="954" d="M131 0v1411q0 23 23 23h41l258 -576q14 -51 303 -698v1251q0 16 8 19.5t59 3.5v-1411q0 -23 -22 -23h-41l-262 586q-4 6 -61.5 138t-134.5 308t-107 246q4 -348 4 -752v-503q0 -16 -8.5 -19.5t-59.5 -3.5z" />
<glyph unicode="O" horiz-adv-x="942" d="M92 727q0 387 96.5 557t298.5 170q199 0 281 -163t82 -564q0 -403 -90 -575t-295 -172q-133 0 -213 68.5t-120 232t-40 446.5zM164 700q0 -356 69.5 -504.5t231.5 -148.5q168 0 241.5 155.5t73.5 530.5q0 360 -68.5 506.5t-226.5 146.5q-166 0 -243.5 -157.5 t-77.5 -528.5z" />
<glyph unicode="P" horiz-adv-x="774" d="M131 0v1411q0 23 23 23h221q180 0 261 -104.5t81 -272.5q0 -211 -93.5 -320.5t-263.5 -109.5h-161v-604q0 -16 -8.5 -19.5t-59.5 -3.5zM199 692h161q143 0 215 96.5t72 270.5q0 311 -276 311h-172v-678z" />
<glyph unicode="Q" horiz-adv-x="942" d="M92 727q0 387 96.5 557t298.5 170q199 0 281 -163t82 -564q0 -375 -77 -548t-249 -195q20 -109 52 -150t88 -41q88 0 135 35q14 -16 14 -41q0 -23 -49 -38t-111 -15q-80 0 -127 56t-73 190q-193 4 -277 169.5t-84 577.5zM164 700q0 -356 69.5 -504.5t231.5 -148.5 q168 0 241.5 155.5t73.5 530.5q0 360 -68.5 506.5t-226.5 146.5q-166 0 -243.5 -157.5t-77.5 -528.5z" />
<glyph unicode="R" horiz-adv-x="784" d="M131 0v1411q0 23 23 23h221q180 0 261 -104.5t81 -272.5q0 -344 -240 -416q37 -47 73 -112.5t84 -207t64 -294.5q2 -16 -3 -20.5t-25 -6.5h-39q-55 420 -225 629q-14 -2 -46 -2h-161v-604q0 -16 -8.5 -19.5t-59.5 -3.5zM199 692h161q143 0 215 96.5t72 268.5 q0 313 -276 313h-172v-678z" />
<glyph unicode="S" horiz-adv-x="776" d="M80 78q0 29 29 47q82 -78 243 -78q143 0 213 77t70 210q0 100 -36 177t-128 169l-233 223q-150 156 -150 287q0 117 90 190.5t246 73.5q80 0 139.5 -13.5t85 -31.5t25.5 -37q0 -27 -23 -43q-74 61 -235 62q-117 0 -187.5 -54.5t-70.5 -144.5q0 -104 127 -236l260 -251 q88 -90 122.5 -171t34.5 -190q0 -168 -87 -266t-265 -98q-88 0 -152.5 18t-91 40t-26.5 40z" />
<glyph unicode="T" horiz-adv-x="741" d="M10 1368v43q0 23 23 23h696v-43q0 -23 -22 -23h-308v-1348q0 -16 -8 -18t-57 -2v1368h-324z" />
<glyph unicode="U" horiz-adv-x="976" d="M131 457v954q0 16 8 19.5t60 3.5v-977q0 -94 9 -157.5t38.5 -127t94.5 -95.5t163 -32q170 0 272 51v1317q0 14 10.5 17.5t59.5 3.5v-1387q-45 -27 -143.5 -47t-198.5 -20q-123 0 -201 36.5t-113.5 110.5t-47 146.5t-11.5 183.5z" />
<glyph unicode="V" horiz-adv-x="862" d="M14 1401q-3 10 -3 17q0 15 16 16h49l274 -988q43 -150 92 -378q35 190 84 378l252 955q6 33 25 33h51l-383 -1450q-16 -4 -45 -4q-16 0 -51 118z" />
<glyph unicode="W" horiz-adv-x="1298" d="M12 1401q-1 7 -1 12q0 21 14 21h51l221 -990q35 -158 65 -346h5q16 143 57 346l184 877q6 31 23 33h51l207 -910q25 -109 63 -342h6q43 285 56 342l200 957q6 33 25 33h51l-307 -1450q-25 -6 -43 -6.5t-39 96.5l-196 833l-58 322q-55 -313 -55 -318l-199 -927 q-16 -4 -47 -4q-16 0 -43 124z" />
<glyph unicode="X" horiz-adv-x="876" d="M23 0l372 750l-317 671q-4 10 6 11q10 2 68 2l122 -260q59 -125 170 -375q53 127 172 375l115 247q4 10 13.5 11.5t68.5 1.5l-326 -691l363 -723q3 -6 2 -10q0 -10 -12 -10h-68l-162 336l-172 354q-68 -147 -170 -352l-164 -328q-6 -10 -20 -10h-61z" />
<glyph unicode="Y" horiz-adv-x="733" d="M12 1421q-4 10 11 11q10 2 63 2l115 -301q33 -84 74.5 -201t68.5 -197t27 -84q0 18 170 482l106 286q2 10 12.5 12.5t63.5 2.5l-320 -850v-561q0 -16 -8 -19.5t-59 -3.5v588z" />
<glyph unicode="Z" horiz-adv-x="817" d="M59 29q0 23 9 39l602 1300h-557v43q0 23 22 23h608q10 -10 11 -27q0 -20 -11 -41l-606 -1303h516q66 0 97 9v-49q0 -23 -23 -23h-653q-15 9 -15 29z" />
<glyph unicode="[" horiz-adv-x="901" d="M354 -403v2054q0 20 10.5 25t45.5 5h469q0 -39 -6.5 -49t-32.5 -10h-420v-1962h454q0 -31 -5 -45t-12 -16t-23 -2h-480z" />
<glyph unicode="\" horiz-adv-x="577" d="M23 1542q-4 18 6 21.5t57 3.5l469 -1606q4 -16 -8 -19t-55 -3z" />
<glyph unicode="]" horiz-adv-x="901" d="M23 -410q0 39 6 48.5t32 9.5h418v1972h-452q0 31 5 45t12 16t24 2h479v-2062q0 -20 -10.5 -25.5t-44.5 -5.5h-469z" />
<glyph unicode="^" horiz-adv-x="880" d="M133 481l311 291l283 -268q12 -10 12 -25q0 -33 -37 -37l-264 242l-233 -219q-27 -23 -39 -23q-29 0 -33 39z" />
<glyph unicode="_" horiz-adv-x="794" d="M39 -166q0 43 3 54.5t19 11.5h695q0 -43 -3 -54.5t-20 -11.5h-694z" />
<glyph unicode="`" horiz-adv-x="317" d="M0 1438q14 59 35 59q2 0 140 -116.5t142 -123.5q-20 -41 -26 -40q-2 0 -144.5 108.5t-146.5 112.5z" />
<glyph unicode="a" horiz-adv-x="774" d="M86 279q0 104 27.5 173.5t79 102.5t103.5 44t122 11q113 0 182 -20v194q0 115 -49 155t-143 40q-205 0 -312 -53q-10 18 -10 37q0 25 12 32q98 49 326 49q121 0 181.5 -57t60.5 -190v-131q0 -338 -11 -611q-125 -76 -272 -75q-12 0 -23 -1q-49 0 -87 8q-46 9 -92 36.5 t-70.5 92.5t-24.5 163zM156 281q0 -82 18.5 -133.5t58 -73t72.5 -26.5t92.5 -5t113.5 17.5t77 37.5q12 154 12 434q-70 20 -164 21q-51 0 -85 -4t-74.5 -19.5t-64.5 -44t-40 -79.5t-16 -125z" />
<glyph unicode="b" horiz-adv-x="851" d="M135 41v1425q0 27 13.5 33t54.5 6v-553q119 92 286 92q135 -2 208 -91t73 -294q0 -680 -397 -679q-158 0 -238 61zM203 88q53 -45 174 -45q324 0 323 590q0 195 -56 270.5t-181 75.5q-158 0 -260 -100v-791z" />
<glyph unicode="c" horiz-adv-x="708" d="M96 489q0 141 23.5 246t58.5 163t88 92t99.5 44t103.5 10q66 0 119 -22.5t53 -50.5q0 -25 -14 -45q-68 55 -170 55q-57 0 -101.5 -16.5t-91.5 -63.5t-73.5 -153.5t-26.5 -266.5q0 -135 18.5 -225t54 -135t78.5 -61.5t105 -16.5q135 0 211 76q12 -20 12 -45 q0 -31 -70.5 -62.5t-166.5 -31.5q-72 0 -122.5 17t-96.5 68.5t-68.5 156.5t-22.5 267z" />
<glyph unicode="d" horiz-adv-x="851" d="M96 492q0 272 103.5 412t263.5 140q119 0 184 -47v471q0 27 13.5 32t56.5 5v-1464q-109 -61 -287 -61q-61 0 -105 8t-90.5 38.5t-74 85t-46 151t-18.5 229.5zM168 494q0 -147 18.5 -240.5t59.5 -137.5t85 -58.5t113 -14.5q127 0 205 49l-2 836q-68 53 -172 53 q-135 0 -221 -124.5t-86 -362.5z" />
<glyph unicode="e" horiz-adv-x="790" d="M92 453q0 156 23.5 268.5t58.5 172.5t87 96t96 45t102 9q256 0 256 -321q0 -139 -15 -227q-188 -37 -477 -37h-63v-10q0 -106 14 -181t36.5 -118.5t60.5 -67t76 -30.5t91 -7q160 0 258 76q10 -27 11 -51q0 -29 -84 -59.5t-189 -30.5q-82 0 -137 16t-105.5 62t-75 144.5 t-24.5 250.5zM160 520q342 0 481 31q8 76 8 149q-4 141 -45 211t-145 70q-57 0 -97 -12.5t-89.5 -54.5t-78 -141t-34.5 -253z" />
<glyph unicode="f" horiz-adv-x="497" d="M33 961q0 45 3 54t21 9h146v135q0 113 29.5 188.5t82 109.5t101.5 46.5t110 12.5q57 0 97.5 -8.5t55.5 -18.5t15 -20.5t-10 -41.5q-68 23 -156 23q-53 0 -91 -8t-80 -35t-64.5 -90.5t-22.5 -161.5v-131h240q0 -45 -3 -54t-20 -9h-217v-938q0 -23 -22 -23h-45v961h-170z " />
<glyph unicode="g" horiz-adv-x="841" d="M84 -190q0 70 53 143.5t127 122.5q-145 41 -145 106q0 37 40 87t93 89q-133 80 -133 320q0 176 94 271t238 95q35 0 90 -10h258q6 -12 6 -28q0 -33 -37 -33q-55 0 -145 8q147 -63 147 -270q0 -172 -82 -284t-250 -112q-78 0 -137 19q-43 -31 -78 -72t-35 -67 q0 -63 344 -99q61 -8 103.5 -19t84.5 -35t63.5 -64.5t21.5 -98.5q0 -115 -104.5 -200t-292.5 -85q-184 0 -254 59t-70 157zM154 -184q0 -74 53 -115t203 -41q154 0 240.5 63.5t86.5 151.5q0 86 -59.5 118t-169.5 44q-102 10 -180 24q-68 -43 -121 -113.5t-53 -131.5z M186 676q0 -137 52.5 -218t205.5 -81q125 0 191.5 100.5t66.5 239.5q0 133 -66.5 200.5t-184.5 67.5q-115 0 -190 -79.5t-75 -229.5z" />
<glyph unicode="h" horiz-adv-x="839" d="M129 0v1468q0 27 11.5 32t54.5 5v-555q125 94 286 94q145 0 198.5 -69.5t53.5 -208.5v-743q0 -16 -9 -19.5t-58 -3.5v758q0 111 -43 166t-158 55q-162 0 -270 -107v-849q0 -16 -8.5 -19.5t-57.5 -3.5z" />
<glyph unicode="i" horiz-adv-x="342" d="M172 1456q45 0 45 -70q-4 -66 -49 -65q-43 2 -43 62q0 73 47 73zM135 0v987q0 25 14.5 31t57.5 6v-1001q0 -16 -9.5 -19.5t-62.5 -3.5z" />
<glyph unicode="j" horiz-adv-x="368" d="M-250 -313q0 23 14 43q88 -63 216 -64q106 0 138 64.5t32 214.5v1042q0 27 12 32t55 5v-1100q0 -160 -50 -240.5t-190 -80.5q-100 0 -163.5 26.5t-63.5 57.5zM186 1456q45 0 45 -70q-4 -66 -49 -65q-43 2 -43 57q0 78 47 78z" />
<glyph unicode="k" horiz-adv-x="819" d="M135 0v1468q0 27 12.5 32t55.5 5v-612q63 72 154.5 111.5t162.5 39.5q182 0 182 -182q0 -68 -29.5 -128t-76.5 -100t-81 -62.5t-64 -36.5q10 1 20 1q71 0 152 -62q92 -71 118 -220q8 -43 9 -109q0 -61 -9 -118q-4 -20 -12 -23.5t-61 -3.5q10 86 10 137q0 102 -29 185 q-63 166 -235 165q-29 0 -66 -8l-145 -53v-403q0 -16 -7.5 -19.5t-60.5 -3.5zM203 489q430 131 430 365q0 125 -129 125q-164 0 -301 -160v-330z" />
<glyph unicode="l" horiz-adv-x="339" d="M135 0v1468q0 27 12.5 32t55.5 5v-1482q0 -16 -9.5 -19.5t-58.5 -3.5z" />
<glyph unicode="m" horiz-adv-x="1259" d="M135 0v977q164 68 299 67q158 0 205 -79q123 80 270 79q139 0 183.5 -70.5t44.5 -234.5v-716q0 -16 -8.5 -19.5t-59.5 -3.5v752q0 127 -31.5 178t-132.5 51q-127 0 -233 -72v-886q0 -10 -1 -13.5t-7.5 -6.5t-18.5 -3h-39v805q-4 96 -35.5 136t-134.5 40q-119 0 -233 -53 v-905q0 -16 -9.5 -19.5t-58.5 -3.5z" />
<glyph unicode="n" horiz-adv-x="851" d="M131 0v971q170 74 336 73q160 0 218 -68.5t58 -219.5v-733q0 -16 -9 -19.5t-60 -3.5v741q0 131 -42 185.5t-165 54.5q-156 0 -270 -57v-901q0 -16 -8.5 -19.5t-57.5 -3.5z" />
<glyph unicode="o" horiz-adv-x="811" d="M76 508q0 537 342 536q166 0 241.5 -115.5t75.5 -418.5q0 -530 -340 -530q-80 0 -132 18t-98 71.5t-67.5 162t-21.5 276.5zM145 496q0 -260 61.5 -356.5t190.5 -96.5q127 0 198 118t71 355q0 266 -61.5 365.5t-188.5 99.5q-131 0 -201 -112.5t-70 -372.5z" />
<glyph unicode="p" horiz-adv-x="845" d="M135 -377v1338q131 84 293 83q170 0 255 -99t85 -341q0 -133 -17.5 -238.5t-49 -171t-66.5 -110.5t-79 -66.5t-79 -29.5t-71 -8q-68 0 -124.5 26.5t-78.5 59.5v-463q-18 -6 -35 -6q-33 -1 -33 26zM203 160q68 -117 192 -117q47 0 90 17.5t96.5 67.5t85 166t31.5 286 q0 227 -66.5 314t-207.5 87q-121 0 -221 -61v-760z" />
<glyph unicode="q" horiz-adv-x="868" d="M94 457q0 291 108.5 439t301.5 148q137 0 227 -65v-1356q0 -20 -7 -24.5t-36 -4.5h-24v508q-90 -123 -261 -122q-309 0 -309 477zM166 451q0 -131 24.5 -218.5t68.5 -125t82 -51t85 -13.5h7l128 37q68 39 103 117v741q-53 43 -170 43q-328 0 -328 -530z" />
<glyph unicode="r" horiz-adv-x="583" d="M131 0v954q127 90 268 90q70 0 112 -17t42 -42q0 -29 -14 -43q-61 37 -131 37q-121 0 -209 -68v-888q0 -16 -10.5 -19.5t-57.5 -3.5z" />
<glyph unicode="s" horiz-adv-x="792" d="M96 55q0 31 19 47q88 -57 241 -57q266 0 267 186q0 133 -142 232l-229 141q-90 55 -120 102.5t-30 112.5q0 104 92.5 164.5t239.5 60.5q82 0 146.5 -18t91 -38.5t26.5 -35.5q0 -18 -20 -45q-111 74 -242 74q-115 0 -188.5 -42t-73.5 -118q0 -45 24.5 -80.5t92.5 -81.5 l250 -157q152 -111 151 -254q0 -131 -86 -199.5t-246 -68.5q-80 0 -142 12t-92 28.5t-30 34.5z" />
<glyph unicode="t" horiz-adv-x="620" d="M68 961q0 41 3 52t17 11h145v334q0 25 10.5 30t57.5 5v-369h277q0 -45 -2.5 -54t-14.5 -9h-260v-658q0 -68 2 -105.5t12.5 -78.5t34 -58.5t62.5 -17.5q68 0 141 37q8 -16 8 -39q0 -29 -47 -45t-113 -16q-47 0 -79.5 17t-50 41.5t-25.5 74t-10.5 88.5t-2.5 108v652h-165z " />
<glyph unicode="u" horiz-adv-x="894" d="M141 369v632q0 16 8.5 19.5t59.5 3.5v-668q0 -182 50 -247.5t196 -65.5q133 0 231 55v903q0 16 10.5 19.5t57.5 3.5v-977q-137 -68 -314 -67q-174 0 -236.5 85t-62.5 304z" />
<glyph unicode="v" horiz-adv-x="749" d="M66 999q-2 7 -3 12q0 8 8 10q11 3 58 3l109 -379q78 -270 143 -563h2q61 293 137 565l96 354q4 16 13.5 19.5t58.5 3.5l-285 -1040q-4 -2 -41 -2q-6 0 -34 100z" />
<glyph unicode="w" horiz-adv-x="1153" d="M61 1001q-2 16 7.5 19.5t60.5 3.5l98 -408l117 -516h4q8 39 113 502l78 361q4 23 24 22h43l96 -391l121 -494h2q27 168 107 516l86 385q2 16 12 19.5t62 3.5q-244 -1040 -246 -1040q-29 -2 -39 -2q-14 0 -41 116l-37 142q-84 305 -154 612q-61 -295 -141 -614l-63 -254 q-37 -2 -45 -2q-12 0 -33 100z" />
<glyph unicode="x" horiz-adv-x="940" d="M57 0l371 543l-317 469q-6 8 10 10q12 2 61 2l125 -182l166 -252q2 4 66.5 100t105.5 156l115 166q8 10 17 11t67 1l-328 -479l361 -525q6 -8 5 -12q0 -5 -8 -6q-12 -2 -69 -2l-131 190q-82 119 -205 304l-207 -308l-117 -172q-10 -14 -88 -14z" />
<glyph unicode="y" horiz-adv-x="780" d="M12 -350q0 29 19 43q49 -25 116 -25q147 0 220 299l-281 1032q-6 18 2 21.5t59 3.5l191 -696l63 -285q23 143 60 287l174 669q4 18 13 21.5t63 3.5l-287 -1094q-47 -176 -114.5 -250.5t-162.5 -74.5q-135 0 -135 45z" />
<glyph unicode="z" horiz-adv-x="794" d="M76 34.5q0 22.5 8 33.5l551 893h-279q-195 0 -268 -9q-2 18 -2 37q0 35 23 35h600q10 -8 10 -25q0 -23 -10 -41l-553 -892h286q199 0 273 12v-37q0 -41 -25 -41h-604q-10 12 -10 34.5z" />
<glyph unicode="{" horiz-adv-x="600" d="M125 610q0 33 27 45q41 25 58 38.5t33.5 54t16.5 108.5q0 84 -14.5 223.5t-14.5 206.5q0 238 318 238q12 -14 12 -41t-22 -27q-121 -6 -179.5 -44t-58.5 -144q0 -45 13.5 -182.5t13.5 -233.5q0 -182 -131 -234q66 -23 98.5 -64.5t32.5 -127.5q0 -98 -13.5 -243.5 t-13.5 -200.5q0 -78 14.5 -123t54.5 -66.5t72.5 -28t108.5 -12.5q4 -20 4 -26q0 -35 -29 -35q-156 0 -225.5 60.5t-69.5 211.5q0 70 14.5 213t14.5 234q0 141 -129 165q-6 12 -6 35z" />
<glyph unicode="|" horiz-adv-x="776" d="M354 -410v2055q0 18 10.5 21t55.5 3v-2056q0 -16 -11.5 -19.5t-54.5 -3.5z" />
<glyph unicode="}" horiz-adv-x="600" d="M39 -268.5q0 26.5 22 26.5q121 6 179.5 44t58.5 145q0 45 -13.5 182t-13.5 233q0 180 131 236q-66 20 -98.5 63.5t-32.5 126.5q0 100 13.5 244t13.5 201q0 78 -14.5 123t-54.5 66.5t-72.5 27.5t-108.5 12q-4 20 -4 27q0 35 29 35q156 0 225.5 -60.5t69.5 -212.5 q0 -70 -15.5 -213t-15.5 -233q0 -141 131 -166q6 -18 6 -35q0 -31 -26 -45q-43 -25 -59.5 -38t-34 -54t-17.5 -109q0 -84 15.5 -223t15.5 -207q0 -238 -320 -237q-10 14 -10 40.5z" />
<glyph unicode="~" horiz-adv-x="819" d="M27 524q29 47 89 87t144 40q70 0 153 -55t150 -55q113 0 172 92q16 18 33.5 9t26.5 -34q-94 -133 -238 -133q-82 0 -167 55.5t-136 55.5q-100 0 -178 -90q-12 -10 -27.5 -1t-21.5 29z" />
<glyph unicode="&#xa1;" horiz-adv-x="376" d="M123 970.5q0 30.5 19.5 51t50.5 20.5q63 0 63 -71q0 -31 -17.5 -51.5t-45.5 -20.5q-31 0 -50.5 20.5t-19.5 51zM150 -406l4 1065q2 31 67 31l4 -1075q1 -21 -75 -21z" />
<glyph unicode="&#xa2;" d="M201 455q0 543 309 583v252q0 23 13.5 30t47.5 7v-285h2q61 0 116.5 -22.5t55.5 -40.5q0 -33 -14 -53q-70 51 -153 51q-63 0 -109.5 -17.5t-95.5 -68.5t-75 -163t-26 -279q0 -111 13.5 -187t33 -119t57.5 -65.5t73.5 -28.5t93.5 -6q92 0 192 76q12 -18 13 -47 q0 -25 -67 -58.5t-144 -33.5h-5v-242q0 -23 -11 -30t-48 -7v281q-70 4 -114 21t-82.5 65.5t-57 144t-18.5 242.5z" />
<glyph unicode="&#xa3;" horiz-adv-x="813" d="M31 571q0 45 3 56.5t19 11.5h144v35q0 164 24.5 274.5t70.5 168t100 80t126 22.5q82 0 142.5 -27t60.5 -57q0 -27 -14 -50q-80 66 -189 66q-80 0 -131 -33t-87 -141.5t-36 -298.5v-39h332q0 -45 -3 -56.5t-20 -11.5h-309q0 -240 17 -501l419 -7q8 -16 9 -32 q0 -8 -4.5 -14.5t-12.5 -9.5t-16 -5t-22 -2h-22h-23h-19h-375q-18 340 -18 571h-166z" />
<glyph unicode="&#xa5;" d="M90 1421q-4 10 10 11q10 2 66 2l113 -301q133 -342 170 -476q23 80 169 476l107 286q4 10 14.5 12.5t63.5 2.5l-256 -678h217q0 -35 -6 -47.5t-29 -12.5h-205l-41 -108v-154h283q0 -35 -6 -47t-29 -12h-248v-352q0 -16 -8 -19.5t-59 -3.5v375h-289q0 35 6 47t27 12h256 v150l-45 112h-244q0 35 6 47.5t27 12.5h188z" />
<glyph unicode="&#xa6;" horiz-adv-x="458" d="M197 -399v825q0 29 32 29q16 0 35 -6v-830q0 -23 -35 -22q-20 0 -32 4zM197 686v807q0 27 32 27q23 0 35 -4v-811q0 -23 -35 -23q-20 0 -32 4z" />
<glyph unicode="&#xa7;" horiz-adv-x="784" d="M115 815q0 139 139 211q-12 10 -23 23q-55 55 -75.5 92t-20.5 94q0 92 79 149.5t214 57.5q88 0 153.5 -29t77.5 -57q2 -6 3 -15q0 -25 -21 -41q-88 72 -219 72q-100 0 -157.5 -39t-57.5 -102q0 -43 17.5 -73t60.5 -75q27 -27 137 -116.5t149 -132.5q55 -57 79 -103.5 t24 -112.5q0 -135 -142 -210l25 -23q55 -55 75.5 -93t20.5 -93q0 -92 -78.5 -149.5t-214.5 -57.5q-88 0 -154.5 28.5t-76.5 57.5q-2 6 -2 14q0 27 20 41q88 -72 220 -72q100 0 157.5 39t57.5 103q0 43 -17.5 72.5t-60.5 74.5q-27 27 -137.5 117t-149.5 133q-55 57 -78.5 103 t-23.5 112zM180 815q0 -82 80 -174q25 -29 225 -192q51 25 87 75.5t36 93.5q0 82 -80 175q-23 23 -57.5 52t-91.5 75.5t-78 62.5q-53 -20 -87 -71.5t-34 -96.5z" />
<glyph unicode="&#xa8;" horiz-adv-x="413" d="M0 1348q0 27 16.5 47t44.5 20q31 0 49.5 -19.5t18.5 -47.5q0 -31 -19.5 -50.5t-48.5 -19.5q-61 0 -61 70zM287 1348q0 27 16 47t45 20q31 0 48.5 -19.5t17.5 -47.5q0 -31 -18.5 -50.5t-47.5 -19.5q-61 0 -61 70z" />
<glyph unicode="&#xa9;" horiz-adv-x="937" d="M84 1104q0 455 397 455q190 0 282.5 -101.5t92.5 -351.5q0 -217 -100.5 -333t-282.5 -116q-98 0 -163.5 17.5t-120 64.5t-80 137.5t-25.5 227.5zM143 1094q0 -209 78 -293t238 -84q158 0 248 101.5t90 291.5q0 213 -79 301t-233 88q-342 1 -342 -405zM303 1077 q0 100 17.5 167t48 95.5t59.5 39t68 10.5q31 0 63.5 -12.5t32.5 -20.5q0 -4 -7 -23.5t-10 -21.5q-41 25 -69 24q-66 0 -106 -52t-40 -206q0 -123 29 -159.5t94 -36.5q41 0 95 30q16 -33 16 -39q0 -12 -38 -29.5t-79 -17.5q-92 0 -133 46t-41 206z" />
<glyph unicode="&#xaa;" horiz-adv-x="706" d="M117 836q0 143 66.5 192t187.5 49q84 0 155 -22v194q0 86 -46 114t-120 28q-117 0 -217 -56q-12 8 -15 28.5t7 29.5q84 61 246 61q209 0 209 -188v-617q-96 -57 -242 -57q-109 0 -170 48.5t-61 195.5zM176 827q0 -104 49 -141t140 -37q98 0 161 37v309q-86 23 -137 23 q-55 0 -86 -4t-64.5 -21.5t-48 -58.5t-14.5 -107z" />
<glyph unicode="&#xab;" horiz-adv-x="856" d="M76 524q0 16 76.5 141.5t154.5 241.5l78 117q12 0 22.5 -8t14.5 -17l6 -10q0 -35 -287 -465q295 -453 295 -479q-16 -45 -37 -45q-323 481 -323 524zM391 512q0 16 77 134t155 226l77 111q12 0 22.5 -8t14.5 -17l4 -10q0 -35 -282 -436q293 -399 293 -424 q-16 -45 -37 -45q-324 428 -324 469z" />
<glyph unicode="&#xac;" horiz-adv-x="819" d="M68 555q0 35 28 35h631v-363q-14 -6 -33 -6q-35 0 -35 29v272h-585q-6 15 -6 33z" />
<glyph unicode="&#xad;" horiz-adv-x="614" d="M98 543q0 45 3 56t20 11h395q0 -45 -3 -56t-19 -11h-396z" />
<glyph unicode="&#xae;" horiz-adv-x="937" d="M84 1104q0 455 397 455q190 0 282.5 -101.5t92.5 -351.5q0 -217 -100.5 -333t-282.5 -116q-98 0 -163.5 17.5t-120 64.5t-80 137.5t-25.5 227.5zM143 1094q0 -209 78 -293t238 -84q158 0 248 101.5t90 291.5q0 213 -79 301t-233 88q-342 1 -342 -405zM344 836v550 q0 8 10 9h111q172 0 172 -148q0 -121 -96 -155q88 -94 108 -240q0 -16 -14 -16h-39q-31 160 -115 243h-84v-227q0 -16 -53 -16zM397 1126h58q131 0 131 119q0 100 -129 101h-60v-220z" />
<glyph unicode="&#xaf;" horiz-adv-x="503" d="M0 1331q4 35 29 35h471q4 -14 4 -35q-4 -33 -29 -33h-471q-4 13 -4 33z" />
<glyph unicode="&#xb0;" horiz-adv-x="782" d="M221 1341q0 86 48 131.5t134 45.5q84 0 124 -40t40 -137q0 -84 -47 -129t-131 -45t-126 36t-42 138zM281 1335q0 -111 108 -110q119 0 119 118q0 63 -25.5 90t-79.5 27q-61 0 -91.5 -28.5t-30.5 -96.5z" />
<glyph unicode="&#xb1;" d="M98 20q0 45 3 56.5t20 11.5h694q0 -45 -3 -56.5t-19 -11.5h-695zM98 557q0 45 3 56.5t20 11.5h305v303q0 16 10 19t56 3v-325h323q0 -45 -3 -56.5t-19 -11.5h-301v-301q0 -16 -11.5 -19.5t-54.5 -3.5v324h-328z" />
<glyph unicode="&#xb2;" horiz-adv-x="851" d="M125 623q0 33 16 47q57 59 153.5 143t158 138.5t110.5 129t49 144.5q0 74 -38.5 117.5t-143.5 43.5q-137 0 -256 -104q-20 20 -20 45q0 33 93 80t197 47q137 0 189.5 -60.5t52.5 -162.5q0 -76 -50 -157t-112.5 -138t-159 -141t-145.5 -138h502q6 -18 6 -30q0 -35 -27 -35 h-569q-6 13 -6 31z" />
<glyph unicode="&#xb3;" horiz-adv-x="899" d="M152 659q0 23 24 41q78 -63 230 -63q123 0 197.5 55.5t74.5 147.5q0 66 -44 110.5t-114 55.5q-66 10 -186 10q-8 8 -8 31q0 31 28 30q74 0 156 -8q129 80 129 188q0 51 -43 91.5t-145 40.5q-160 0 -265 -91q-16 16 -16 37t12 29q94 90 277 90q133 0 191.5 -54t58.5 -132 q0 -131 -123 -215q74 -23 116.5 -77t42.5 -128q0 -133 -93 -205t-257 -72q-174 0 -233 64q-10 10 -10 24z" />
<glyph unicode="&#xb4;" horiz-adv-x="317" d="M0 1241q57 55 128 115.5t112 93.5t43 33q14 0 34 -60q-6 -6 -45 -37.5t-110.5 -86t-134.5 -99.5z" />
<glyph unicode="&#xb5;" horiz-adv-x="899" d="M141 -393v1397q0 29 33 28q20 0 33 -4v-766q0 -217 237 -217q135 0 244 47v909q0 31 33 31q20 0 33 -4v-981q-156 -68 -308 -67q-168 0 -239 92v-445q0 -25 -37 -24q-13 0 -29 4z" />
<glyph unicode="&#x3bc;" horiz-adv-x="899" d="M141 -393v1397q0 29 33 28q20 0 33 -4v-766q0 -217 237 -217q135 0 244 47v909q0 31 33 31q20 0 33 -4v-981q-156 -68 -308 -67q-168 0 -239 92v-445q0 -25 -37 -24q-13 0 -29 4z" />
<glyph unicode="&#xb6;" horiz-adv-x="1128" d="M104 868q0 276 106.5 430t301.5 154q131 0 229 -51v-1381q0 -27 -36 -26q-18 0 -31 6v428q-76 -41 -201 -41q-160 0 -264.5 109.5t-104.5 371.5zM172 870q0 -231 88 -325t223 -94q111 -4 191 43v862q-49 33 -170 33q-158 0 -245 -135.5t-87 -383.5zM918 2v1382 q0 27 34 27q18 0 33 -4v-1387q0 -23 -35 -22q-20 0 -32 4z" />
<glyph unicode="&#xb7;" horiz-adv-x="405" d="M129 553q0 29 18.5 49.5t47.5 20.5q31 0 49 -19.5t18 -50.5t-19.5 -51.5t-47.5 -20.5q-66 0 -66 72z" />
<glyph unicode="&#xb8;" horiz-adv-x="235" d="M0 -358q4 41 16 53q10 4 19.5 2t30 -8t36.5 -6q76 0 76 75q0 74 -74 74l-73 -12l39 186h57l-27 -131q10 4 37 4q39 0 69 -27.5t30 -80.5q0 -76 -40 -110t-94 -34q-25 0 -50 4t-40 9z" />
<glyph unicode="&#xb9;" horiz-adv-x="878" d="M152 621q0 37 26 36h266v721l-276 -59q-10 14 -10 33q0 25 28 34q270 68 297 68q18 0 29 -4v-793h211q4 -12 4 -32q0 -33 -25 -33h-544q-6 13 -6 29z" />
<glyph unicode="&#xba;" horiz-adv-x="731" d="M98 1020q0 221 75 327.5t204 106.5q133 0 194.5 -94t61.5 -340q0 -426 -277 -426q-63 0 -106 17.5t-80 62.5t-54.5 131t-17.5 215zM162 1010q0 -203 47 -279t147 -76q102 0 158.5 94.5t56.5 276.5q0 205 -47 285t-143 80q-219 0 -219 -381z" />
<glyph unicode="&#xbb;" horiz-adv-x="849" d="M104 86l295 426q-285 401 -284 436q0 10 10 19.5t20 11.5l11 4q309 -432 309 -471q0 -18 -81 -136t-161 -226l-80 -109q-39 10 -39 45zM414 45q0 10 73.5 130t147.5 235l72 114q-285 430 -285 465q0 10 10 19.5t23 11.5l10 4q309 -461 309 -500q0 -43 -321 -524 q-39 8 -39 45z" />
<glyph unicode="&#xbc;" horiz-adv-x="1808" d="M152 621q0 37 26 36h266v721l-276 -59q-10 14 -10 33q0 25 28 34q270 68 297 68q18 0 29 -4v-793h211q4 -12 4 -32q0 -33 -25 -33h-544q-6 13 -6 29zM465 16l924 1426q8 14 22 14q25 0 41 -31l-926 -1431q-4 -10 -18 -10q-35 -1 -43 32zM1004 186.5q0 10.5 16 59.5 q43 131 161.5 313t229.5 285q18 18 47 18q16 0 29 -4v-633h162q6 -12 6 -35q0 -31 -19 -30h-149v-140q0 -29 -41 -28q-16 0 -25 2v166h-409q-8 16 -8 26.5zM1081 223h340l2 539q-92 -86 -196.5 -243t-145.5 -296z" />
<glyph unicode="&#xbd;" horiz-adv-x="1886" d="M152 621q0 37 26 36h266v721l-276 -59q-10 14 -10 33q0 25 28 34q270 68 297 68q18 0 29 -4v-793h211q4 -12 4 -32q0 -33 -25 -33h-544q-6 13 -6 29zM465 16l924 1426q8 14 22 14q25 0 41 -31l-926 -1431q-4 -10 -18 -10q-35 -1 -43 32zM1133 31q0 33 16 47 q57 59 153.5 143t158 138.5t110.5 129t49 144.5q0 74 -39 118t-143 44q-137 0 -256 -105q-20 20 -21 45q0 33 93.5 80t197.5 47q137 0 189.5 -60.5t52.5 -162.5q0 -76 -50.5 -157t-113 -138t-158.5 -141t-145 -137h502q6 -18 6 -31q0 -35 -27 -35h-569q-6 13 -6 31z" />
<glyph unicode="&#xbe;" horiz-adv-x="1802" d="M152 659q0 23 24 41q78 -63 230 -63q123 0 197.5 55.5t74.5 147.5q0 66 -44 110.5t-114 55.5q-66 10 -186 10q-8 8 -8 31q0 31 28 30q74 0 156 -8q129 80 129 188q0 51 -43 91.5t-145 40.5q-160 0 -265 -91q-16 16 -16 37t12 29q94 90 277 90q133 0 191.5 -54t58.5 -132 q0 -131 -123 -215q74 -23 116.5 -77t42.5 -128q0 -133 -93 -205t-257 -72q-174 0 -233 64q-10 10 -10 24zM494 16l923 1426q8 14 23 14q25 0 41 -31l-926 -1431q-4 -10 -18 -10q-35 -1 -43 32zM997 186.5q0 10.5 17 59.5q43 131 161.5 313t229.5 285q18 18 47 18q16 0 29 -4 v-633h161q6 -12 7 -35q0 -31 -19 -30h-149v-140q0 -29 -41 -28q-16 0 -25 2v166h-409q-9 16 -9 26.5zM1075 223h340l2 539q-92 -86 -196.5 -243t-145.5 -296z" />
<glyph unicode="&#xbf;" horiz-adv-x="610" d="M29 -104q0 104 43 193t117.5 181t89.5 117q49 82 49 176q0 25 -3 50.5t-6.5 38t-1.5 14.5q10 16 62 6q18 -43 18 -109q0 -104 -59 -203q-20 -37 -90 -122.5t-110 -165.5t-40 -172q0 -229 226 -230q127 0 217 66q6 -18 6 -51q0 -25 -73 -53.5t-159 -28.5 q-121 0 -203.5 64.5t-82.5 228.5zM276 966.5q0 30.5 18.5 51t49.5 20.5q63 0 64 -71q0 -29 -17.5 -49.5t-46.5 -20.5q-31 0 -49.5 19.5t-18.5 50z" />
<glyph unicode="&#xc0;" horiz-adv-x="892" d="M18 0l404 1436q0 8 18 8q20 0 27 -6l405 -1415q6 -25 -24 -25q-29 0 -43 2l-119 424h-479l-111 -410q-6 -16 -37 -16q-23 0 -41 2zM213 1847q14 59 35 60q2 0 140 -117t142 -123q-20 -41 -26 -41q-2 0 -144.5 108.5t-146.5 112.5zM223 487h447l-125 451q-92 332 -101 405 q-6 -55 -98 -405z" />
<glyph unicode="&#xc1;" horiz-adv-x="892" d="M18 0l404 1436q0 8 18 8q20 0 27 -6l405 -1415q6 -25 -24 -25q-29 0 -43 2l-119 424h-479l-111 -410q-6 -16 -37 -16q-23 0 -41 2zM223 487h447l-125 451q-92 332 -101 405q-6 -55 -98 -405zM371 1651q57 55 127.5 115.5t111.5 93t43 32.5q14 0 35 -59q-6 -6 -45 -38 t-110.5 -86t-135.5 -99z" />
<glyph unicode="&#xc2;" horiz-adv-x="892" d="M18 0l404 1436q0 8 18 8q20 0 27 -6l405 -1415q6 -25 -24 -25q-29 0 -43 2l-119 424h-479l-111 -410q-6 -16 -37 -16q-23 0 -41 2zM201 1645l225 217q8 4 20 4q16 0 31 -17q199 -197 199 -202q0 -2 -7 -10.5t-21.5 -16.5t-29.5 -8q-170 180 -174 188q-178 -186 -194 -186 q-39 0 -49 31zM223 487h447l-125 451q-92 332 -101 405q-6 -55 -98 -405z" />
<glyph unicode="&#xc3;" horiz-adv-x="892" d="M18 0l404 1436q0 8 18 8q20 0 27 -6l405 -1415q6 -25 -24 -25q-29 0 -43 2l-119 424h-479l-111 -410q-6 -16 -37 -16q-23 0 -41 2zM156 1688q45 76 88 101.5t102 25.5q49 0 99.5 -55.5t95.5 -55.5q49 0 81.5 25.5t48 51t21.5 25.5q8 0 17.5 -10t13.5 -18l4 -11 q-66 -131 -190 -131q-53 0 -89 30t-62 59.5t-54 29.5q-37 0 -66.5 -25.5t-46 -52t-22.5 -26.5zM223 487h447l-125 451q-92 332 -101 405q-6 -55 -98 -405z" />
<glyph unicode="&#xc4;" horiz-adv-x="892" d="M18 0l404 1436q0 8 18 8q20 0 27 -6l405 -1415q6 -25 -24 -25q-29 0 -43 2l-119 424h-479l-111 -410q-6 -16 -37 -16q-23 0 -41 2zM223 487h447l-125 451q-92 332 -101 405q-6 -55 -98 -405zM238 1757q0 27 16 47.5t45 20.5q31 0 49.5 -19.5t18.5 -48.5q0 -31 -19.5 -50 t-48.5 -19q-61 -1 -61 69zM524 1757q0 27 16.5 47.5t45.5 20.5q31 0 48 -19.5t17 -48.5q0 -31 -18.5 -50t-46.5 -19q-62 -1 -62 69z" />
<glyph unicode="&#xc5;" horiz-adv-x="892" d="M18 0l404 1436q0 8 18 8q20 0 27 -6l405 -1415q6 -25 -24 -25q-29 0 -43 2l-119 424h-479l-111 -410q-6 -16 -37 -16q-23 0 -41 2zM223 487h447l-125 451q-92 332 -101 405q-6 -55 -98 -405zM270 1778q0 88 48.5 132t132.5 44q86 0 124.5 -40t38.5 -136q0 -84 -47 -129 t-131 -45q-166 0 -166 174zM330 1774q0 -111 108 -111q117 0 117 117q0 63 -25.5 88.5t-76.5 25.5q-61 0 -92 -27t-31 -93z" />
<glyph unicode="&#xc6;" horiz-adv-x="1363" d="M39 0l731 1419q4 14 23 15h499q0 -45 -2 -55.5t-12 -10.5h-430v-551h403q0 -63 -18 -63h-385v-688h446q0 -45 -2 -55.5t-16 -10.5h-496v424h-452l-213 -410q-6 -16 -37 -16q-21 0 -39 2zM360 487h420v844q-66 -147 -190 -401z" />
<glyph unicode="&#xc7;" horiz-adv-x="745" d="M92 641q0 213 24.5 368.5t60.5 239.5t92.5 132.5t104.5 60.5t111 12q82 0 136.5 -32.5t54.5 -65.5q0 -23 -17 -43q-76 76 -174 76q-53 0 -93 -12.5t-85 -57.5t-74.5 -124t-49 -222.5t-19.5 -339.5q0 -147 16.5 -257t42 -170.5t64.5 -97t73.5 -47t77.5 -10.5 q72 0 138.5 37t95.5 78q16 -25 16 -47q0 -41 -72.5 -87t-166.5 -52l-21 -105q10 4 37 4q39 0 68.5 -27.5t29.5 -80.5q0 -76 -40 -110t-93 -34q-25 0 -50.5 4t-39.5 9l-12 2q4 41 16 53q10 4 19.5 2t30 -8t36.5 -6q76 0 76 75q0 74 -74 74l-74 -12l33 162q-47 2 -83 15 t-79 55t-70.5 109.5t-47 190.5t-19.5 289z" />
<glyph unicode="&#xc8;" horiz-adv-x="718" d="M137 0v1411q0 23 23 23h489q0 -45 -2 -55.5t-12 -10.5h-430v-551h401q0 -63 -18 -63h-383v-688h446q0 -45 -2 -55.5t-16 -10.5h-496zM184 1847q14 59 35 60q2 0 140.5 -117t142.5 -123q-20 -41 -27 -41q-2 0 -144.5 108.5t-146.5 112.5z" />
<glyph unicode="&#xc9;" horiz-adv-x="718" d="M137 0v1411q0 23 23 23h489q0 -45 -2 -55.5t-12 -10.5h-430v-551h401q0 -63 -18 -63h-383v-688h446q0 -45 -2 -55.5t-16 -10.5h-496zM344 1651q57 55 128 115.5t112 93t43 32.5q14 0 35 -59q-6 -6 -45 -38t-111 -86t-135 -99z" />
<glyph unicode="&#xca;" horiz-adv-x="718" d="M137 0v1411q0 23 23 23h489q0 -45 -2 -55.5t-12 -10.5h-430v-551h401q0 -63 -18 -63h-383v-688h446q0 -45 -2 -55.5t-16 -10.5h-496zM174 1645l225 217q8 4 21 4q16 0 31 -17q199 -197 198 -202q0 -2 -7 -10.5t-21.5 -16.5t-28.5 -8q-170 180 -174 188 q-178 -186 -195 -186q-39 0 -49 31z" />
<glyph unicode="&#xcb;" horiz-adv-x="718" d="M137 0v1411q0 23 23 23h489q0 -45 -2 -55.5t-12 -10.5h-430v-551h401q0 -63 -18 -63h-383v-688h446q0 -45 -2 -55.5t-16 -10.5h-496zM211 1757q0 27 16.5 47.5t44.5 20.5q31 0 49.5 -19.5t18.5 -48.5q0 -31 -19.5 -50t-48.5 -19q-61 -1 -61 69zM498 1757q0 27 16 47.5 t45 20.5q31 0 48.5 -19.5t17.5 -48.5q0 -31 -18.5 -50t-47.5 -19q-61 -1 -61 69z" />
<glyph unicode="&#xcc;" horiz-adv-x="329" d="M-68 1847q14 59 35 60q2 0 140.5 -117t142.5 -123q-20 -41 -27 -41q-2 0 -144.5 108.5t-146.5 112.5zM131 0v1395q0 29 9.5 34t58.5 5v-1411q0 -16 -9.5 -19.5t-58.5 -3.5z" />
<glyph unicode="&#xcd;" horiz-adv-x="329" d="M92 1651q57 55 128 115.5t112 93t43 32.5q14 0 35 -59q-6 -6 -45 -38t-111 -86t-135 -99zM131 0v1395q0 29 9.5 34t58.5 5v-1411q0 -16 -9.5 -19.5t-58.5 -3.5z" />
<glyph unicode="&#xce;" horiz-adv-x="329" d="M-80 1645l225 217q8 4 21 4q16 0 31 -17q199 -197 198 -202q0 -2 -7 -10.5t-21.5 -16.5t-28.5 -8q-170 180 -174 188q-178 -186 -195 -186q-39 0 -49 31zM131 0v1395q0 29 9.5 34t58.5 5v-1411q0 -16 -9.5 -19.5t-58.5 -3.5z" />
<glyph unicode="&#xcf;" horiz-adv-x="329" d="M-41 1757q0 27 16.5 47.5t44.5 20.5q31 0 49.5 -19.5t18.5 -48.5q0 -31 -19.5 -50t-48.5 -19q-61 -1 -61 69zM131 0v1395q0 29 9.5 34t58.5 5v-1411q0 -16 -9.5 -19.5t-58.5 -3.5zM246 1757q0 27 16.5 47.5t44.5 20.5q31 0 48.5 -19.5t17.5 -48.5q0 -31 -18.5 -50 t-47.5 -19q-61 -1 -61 69z" />
<glyph unicode="&#xd0;" horiz-adv-x="880" d="M37 727q0 43 3 54.5t19 11.5h76v608q0 33 49 33h207q199 0 298 -152t99 -485q0 -199 -22.5 -345.5t-59 -232.5t-93 -136t-110.5 -66.5t-126 -16.5h-242v727h-98zM203 66h174q59 0 103 14t91 59t78 123t50.5 213t19.5 322q0 299 -80 435t-256 136h-180v-575h254 q0 -43 -3 -54.5t-20 -11.5h-231v-661z" />
<glyph unicode="&#xd1;" horiz-adv-x="954" d="M131 0v1411q0 23 23 23h41l258 -576q14 -51 303 -698v1251q0 16 8 19.5t59 3.5v-1411q0 -23 -22 -23h-41l-262 586q-4 6 -61.5 138t-134.5 308t-107 246q4 -348 4 -752v-503q0 -16 -8.5 -19.5t-59.5 -3.5zM209 1688q45 76 88 101.5t102 25.5q49 0 99.5 -55.5t95.5 -55.5 q49 0 82 25.5t48 51t21 25.5q8 0 17.5 -10t13.5 -18l4 -11q-66 -131 -190 -131q-53 0 -89 30t-61.5 59.5t-54.5 29.5q-37 0 -66.5 -25.5t-46 -52t-22.5 -26.5z" />
<glyph unicode="&#xd2;" horiz-adv-x="942" d="M92 727q0 387 96.5 557t298.5 170q199 0 281 -163t82 -564q0 -403 -90 -575t-295 -172q-133 0 -213 68.5t-120 232t-40 446.5zM164 700q0 -356 69.5 -504.5t231.5 -148.5q168 0 241.5 155.5t73.5 530.5q0 360 -68.5 506.5t-226.5 146.5q-166 0 -243.5 -157.5 t-77.5 -528.5zM262 1847q14 59 35 60q2 0 140 -117t143 -123q-20 -41 -27 -41q-2 0 -144.5 108.5t-146.5 112.5z" />
<glyph unicode="&#xd3;" horiz-adv-x="942" d="M92 727q0 387 96.5 557t298.5 170q199 0 281 -163t82 -564q0 -403 -90 -575t-295 -172q-133 0 -213 68.5t-120 232t-40 446.5zM164 700q0 -356 69.5 -504.5t231.5 -148.5q168 0 241.5 155.5t73.5 530.5q0 360 -68.5 506.5t-226.5 146.5q-166 0 -243.5 -157.5 t-77.5 -528.5zM420 1651q57 55 127.5 115.5t111.5 93t43 32.5q14 0 35 -59q-6 -6 -45 -38t-110.5 -86t-135.5 -99z" />
<glyph unicode="&#xd4;" horiz-adv-x="942" d="M92 727q0 387 96.5 557t298.5 170q199 0 281 -163t82 -564q0 -403 -90 -575t-295 -172q-133 0 -213 68.5t-120 232t-40 446.5zM164 700q0 -356 69.5 -504.5t231.5 -148.5q168 0 241.5 155.5t73.5 530.5q0 360 -68.5 506.5t-226.5 146.5q-166 0 -243.5 -157.5 t-77.5 -528.5zM250 1645l225 217q8 4 21 4q16 0 30 -17q199 -197 199 -202q0 -2 -7 -10.5t-21.5 -16.5t-28.5 -8q-170 180 -174 188q-178 -186 -195 -186q-39 0 -49 31z" />
<glyph unicode="&#xd5;" horiz-adv-x="942" d="M92 727q0 387 96.5 557t298.5 170q199 0 281 -163t82 -564q0 -403 -90 -575t-295 -172q-133 0 -213 68.5t-120 232t-40 446.5zM164 700q0 -356 69.5 -504.5t231.5 -148.5q168 0 241.5 155.5t73.5 530.5q0 360 -68.5 506.5t-226.5 146.5q-166 0 -243.5 -157.5 t-77.5 -528.5zM205 1688q45 76 88 101.5t102 25.5q49 0 99.5 -55.5t95.5 -55.5q49 0 82 25.5t48 51t21 25.5q8 0 17.5 -10t13.5 -18l4 -11q-66 -131 -190 -131q-53 0 -89 30t-61.5 59.5t-54.5 29.5q-37 0 -66.5 -25.5t-46 -52t-22.5 -26.5z" />
<glyph unicode="&#xd6;" horiz-adv-x="942" d="M92 727q0 387 96.5 557t298.5 170q199 0 281 -163t82 -564q0 -403 -90 -575t-295 -172q-133 0 -213 68.5t-120 232t-40 446.5zM164 700q0 -356 69.5 -504.5t231.5 -148.5q168 0 241.5 155.5t73.5 530.5q0 360 -68.5 506.5t-226.5 146.5q-166 0 -243.5 -157.5 t-77.5 -528.5zM287 1757q0 27 16 47.5t45 20.5q31 0 49.5 -19.5t18.5 -48.5q0 -31 -19.5 -50t-48.5 -19q-61 -1 -61 69zM573 1757q0 27 16.5 47.5t45.5 20.5q31 0 48 -19.5t17 -48.5q0 -31 -18 -50t-47 -19q-62 -1 -62 69z" />
<glyph unicode="&#xd7;" d="M207 346l201 229l-201 232q31 31 40 36t21 -5l185 -211l186 211q14 10 23.5 5t39.5 -36l-204 -232l202 -229q-29 -31 -38 -36t-25 5l-184 209l-183 -209q-14 -10 -23 -5t-40 36z" />
<glyph unicode="&#xd8;" horiz-adv-x="954" d="M98 727q0 387 94.5 557t294.5 170q150 0 232 -88l43 107q45 -2 49 -25q0 -6 -51 -135q96 -160 96 -586q0 -403 -91 -575t-294 -172q-160 0 -240 92q-45 -104 -45 -107q-43 0 -49 25q0 2 10.5 27.5t24.5 60.5t21 49q-95 164 -95 600zM168 700q0 -360 72 -510l438 1115 q-63 82 -189 81q-166 0 -243.5 -157.5t-77.5 -528.5zM274 133q68 -86 193 -86q170 0 244.5 153.5t74.5 532.5q0 369 -73 514q-45 -117 -232 -589t-207 -525z" />
<glyph unicode="&#xd9;" horiz-adv-x="976" d="M131 457v954q0 16 8 19.5t60 3.5v-977q0 -94 9 -157.5t38.5 -127t94.5 -95.5t163 -32q170 0 272 51v1317q0 14 10.5 17.5t59.5 3.5v-1387q-45 -27 -143.5 -47t-198.5 -20q-123 0 -201 36.5t-113.5 110.5t-47 146.5t-11.5 183.5zM272 1847q14 59 35 60q2 0 140.5 -117 t142.5 -123q-20 -41 -27 -41q-2 0 -144.5 108.5t-146.5 112.5z" />
<glyph unicode="&#xda;" horiz-adv-x="976" d="M131 457v954q0 16 8 19.5t60 3.5v-977q0 -94 9 -157.5t38.5 -127t94.5 -95.5t163 -32q170 0 272 51v1317q0 14 10.5 17.5t59.5 3.5v-1387q-45 -27 -143.5 -47t-198.5 -20q-123 0 -201 36.5t-113.5 110.5t-47 146.5t-11.5 183.5zM432 1651q57 55 128 115.5t112 93t43 32.5 q14 0 35 -59q-6 -6 -45 -38t-111 -86t-135 -99z" />
<glyph unicode="&#xdb;" horiz-adv-x="976" d="M131 457v954q0 16 8 19.5t60 3.5v-977q0 -94 9 -157.5t38.5 -127t94.5 -95.5t163 -32q170 0 272 51v1317q0 14 10.5 17.5t59.5 3.5v-1387q-45 -27 -143.5 -47t-198.5 -20q-123 0 -201 36.5t-113.5 110.5t-47 146.5t-11.5 183.5zM262 1645l225 217q8 4 21 4q16 0 31 -17 q199 -197 198 -202q0 -2 -7 -10.5t-21.5 -16.5t-28.5 -8q-170 180 -174 188q-178 -186 -195 -186q-39 0 -49 31z" />
<glyph unicode="&#xdc;" horiz-adv-x="976" d="M131 457v954q0 16 8 19.5t60 3.5v-977q0 -94 9 -157.5t38.5 -127t94.5 -95.5t163 -32q170 0 272 51v1317q0 14 10.5 17.5t59.5 3.5v-1387q-45 -27 -143.5 -47t-198.5 -20q-123 0 -201 36.5t-113.5 110.5t-47 146.5t-11.5 183.5zM299 1757q0 27 16.5 47.5t44.5 20.5 q31 0 49.5 -19.5t18.5 -48.5q0 -31 -19.5 -50t-48.5 -19q-61 -1 -61 69zM586 1757q0 27 16 47.5t45 20.5q31 0 48.5 -19.5t17.5 -48.5q0 -31 -18.5 -50t-47.5 -19q-61 -1 -61 69z" />
<glyph unicode="&#xdd;" horiz-adv-x="733" d="M12 1421q-4 10 11 11q10 2 63 2l115 -301q33 -84 74.5 -201t68.5 -197t27 -84q0 18 170 482l106 286q2 10 12.5 12.5t63.5 2.5l-320 -850v-561q0 -16 -8 -19.5t-59 -3.5v588zM301 1651q57 55 128 115.5t112 93t43 32.5q14 0 34 -59q-6 -6 -44.5 -38t-110.5 -86t-135 -99z " />
<glyph unicode="&#xde;" horiz-adv-x="774" d="M131 0v1413q0 20 47 21h21v-273h176q180 0 261 -104.5t81 -272.5q0 -211 -93.5 -320.5t-263.5 -109.5h-161v-331q0 -16 -9.5 -19.5t-58.5 -3.5zM199 422h48h77l36 -2q143 0 215 96t72 270q0 311 -276 312h-172v-676z" />
<glyph unicode="&#xdf;" horiz-adv-x="972" d="M119 -2q14 31 14 78v1048q0 317 313 318q197 0 293.5 -92.5t96.5 -196.5q0 -63 -46.5 -114.5t-102.5 -79t-102 -70.5t-46 -90q0 -43 41 -85t99 -81t116.5 -85t99.5 -117t41 -157q0 -143 -83 -217.5t-228 -74.5q-70 0 -127.5 15t-84 34.5t-26.5 34.5q0 37 23 49 q76 -70 211 -70q109 0 177 56.5t68 168.5q0 74 -41 137.5t-99 107.5t-116.5 86t-99.5 91t-41 105q0 61 46 111t102.5 78t102.5 72t46 95q0 84 -79 154.5t-232 70.5q-131 0 -192.5 -68.5t-61.5 -228.5v-1052q0 -45 -39 -45q-12 0 -22.5 4t-16.5 8z" />
<glyph unicode="&#xe0;" horiz-adv-x="774" d="M86 279q0 104 27.5 173.5t79 102.5t103.5 44t122 11q113 0 182 -20v194q0 115 -49 155t-143 40q-205 0 -312 -53q-10 18 -10 37q0 25 12 32q98 49 326 49q121 0 181.5 -57t60.5 -190v-131q0 -338 -11 -611q-125 -76 -272 -75q-63 -2 -109.5 7t-92.5 36.5t-70.5 92.5 t-24.5 163zM156 281q0 -82 18.5 -133.5t58 -73t72.5 -26.5t92.5 -5t113.5 17.5t77 37.5q12 154 12 434q-70 20 -164 21q-51 0 -85 -4t-74.5 -19.5t-64.5 -44t-40 -79.5t-16 -125zM162 1438q14 59 35 59q2 0 140 -116.5t142 -123.5q-20 -41 -26 -40q-2 0 -144.5 108.5 t-146.5 112.5z" />
<glyph unicode="&#xe1;" horiz-adv-x="774" d="M86 279q0 104 27.5 173.5t79 102.5t103.5 44t122 11q113 0 182 -20v194q0 115 -49 155t-143 40q-205 0 -312 -53q-10 18 -10 37q0 25 12 32q98 49 326 49q121 0 181.5 -57t60.5 -190v-131q0 -338 -11 -611q-125 -76 -272 -75q-63 -2 -109.5 7t-92.5 36.5t-70.5 92.5 t-24.5 163zM156 281q0 -82 18.5 -133.5t58 -73t72.5 -26.5t92.5 -5t113.5 17.5t77 37.5q12 154 12 434q-70 20 -164 21q-51 0 -85 -4t-74.5 -19.5t-64.5 -44t-40 -79.5t-16 -125zM319 1241q57 55 128 115.5t112 93.5t43 33q14 0 35 -60q-6 -6 -45 -37.5t-110.5 -86 t-135.5 -99.5z" />
<glyph unicode="&#xe2;" horiz-adv-x="774" d="M86 279q0 104 27.5 173.5t79 102.5t103.5 44t122 11q113 0 182 -20v194q0 115 -49 155t-143 40q-205 0 -312 -53q-10 18 -10 37q0 25 12 32q98 49 326 49q121 0 181.5 -57t60.5 -190v-131q0 -338 -11 -611q-125 -76 -272 -75q-63 -2 -109.5 7t-92.5 36.5t-70.5 92.5 t-24.5 163zM150 1235l225 217q8 4 20 4q16 0 31 -16q199 -197 199 -203q0 -2 -7.5 -10t-21.5 -16.5t-29 -8.5q-170 180 -174 189q-178 -186 -194 -187q-39 0 -49 31zM156 281q0 -82 18.5 -133.5t58 -73t72.5 -26.5t92.5 -5t113.5 17.5t77 37.5q12 154 12 434q-70 20 -164 21 q-51 0 -85 -4t-74.5 -19.5t-64.5 -44t-40 -79.5t-16 -125z" />
<glyph unicode="&#xe3;" horiz-adv-x="774" d="M86 279q0 104 27.5 173.5t79 102.5t103.5 44t122 11q113 0 182 -20v194q0 115 -49 155t-143 40q-205 0 -312 -53q-10 18 -10 37q0 25 12 32q98 49 326 49q121 0 181.5 -57t60.5 -190v-131q0 -338 -11 -611q-125 -76 -272 -75q-63 -2 -109.5 7t-92.5 36.5t-70.5 92.5 t-24.5 163zM104 1278q45 76 88.5 101.5t102.5 25.5q49 0 99 -55.5t95 -55.5q49 0 82 26t48.5 51.5t21.5 25.5q8 0 17.5 -10.5t13.5 -18.5l4 -10q-66 -131 -191 -131q-53 0 -89 29.5t-61.5 59.5t-53.5 30q-37 0 -67 -26t-46 -52.5t-23 -26.5zM156 281q0 -82 18.5 -133.5 t58 -73t72.5 -26.5t92.5 -5t113.5 17.5t77 37.5q12 154 12 434q-70 20 -164 21q-51 0 -85 -4t-74.5 -19.5t-64.5 -44t-40 -79.5t-16 -125z" />
<glyph unicode="&#xe4;" horiz-adv-x="774" d="M86 279q0 104 27.5 173.5t79 102.5t103.5 44t122 11q113 0 182 -20v194q0 115 -49 155t-143 40q-205 0 -312 -53q-10 18 -10 37q0 25 12 32q98 49 326 49q121 0 181.5 -57t60.5 -190v-131q0 -338 -11 -611q-125 -76 -272 -75q-63 -2 -109.5 7t-92.5 36.5t-70.5 92.5 t-24.5 163zM156 281q0 -82 18.5 -133.5t58 -73t72.5 -26.5t92.5 -5t113.5 17.5t77 37.5q12 154 12 434q-70 20 -164 21q-51 0 -85 -4t-74.5 -19.5t-64.5 -44t-40 -79.5t-16 -125zM186 1348q0 27 16.5 47t45.5 20q31 0 49 -19.5t18 -47.5q0 -31 -19.5 -50.5t-47.5 -19.5 q-62 0 -62 70zM473 1348q0 27 16.5 47t45.5 20q31 0 48 -19.5t17 -47.5q0 -31 -18.5 -50.5t-46.5 -19.5q-62 0 -62 70z" />
<glyph unicode="&#xe5;" horiz-adv-x="774" d="M86 279q0 104 27.5 173.5t79 102.5t103.5 44t122 11q113 0 182 -20v194q0 115 -49 155t-143 40q-205 0 -312 -53q-10 18 -10 37q0 25 12 32q98 49 326 49q121 0 181.5 -57t60.5 -190v-131q0 -338 -11 -611q-125 -76 -272 -75q-63 -2 -109.5 7t-92.5 36.5t-70.5 92.5 t-24.5 163zM156 281q0 -82 18.5 -133.5t58 -73t72.5 -26.5t92.5 -5t113.5 17.5t77 37.5q12 154 12 434q-70 20 -164 21q-51 0 -85 -4t-74.5 -19.5t-64.5 -44t-40 -79.5t-16 -125zM219 1368q0 88 48 132t132 44q86 0 125 -40t39 -136q0 -84 -47 -129t-131 -45 q-166 0 -166 174zM279 1364q0 -111 108 -111q117 0 117 117q0 63 -25.5 89t-77.5 26q-61 0 -91.5 -27.5t-30.5 -93.5z" />
<glyph unicode="&#xe6;" horiz-adv-x="1337" d="M86 281q0 104 27.5 173.5t79 102.5t103.5 45t122 12q113 0 182 -20v192q0 115 -51 155t-154 40q-186 0 -291 -61q-10 18 -10 38q0 25 19 33q92 53 307 53q113 0 172 -47t67 -159q47 125 126 165.5t188 40.5q256 0 256 -311q0 -154 -17 -237q-84 -14 -184 -15 q-172 0 -356 37v-69q0 -133 19.5 -217.5t61.5 -122t85 -49t110 -11.5q164 0 260 74q12 -29 13 -64q0 -12 -37 -29.5t-102.5 -31.5t-133.5 -14q-109 0 -178.5 27.5t-107.5 111.5v-78q-94 -61 -279 -61q-66 -2 -110 6t-91 34.5t-71.5 91.5t-24.5 165zM156 274q0 -78 18.5 -128 t57 -70.5t73.5 -26.5t92 -6q61 0 121 15.5t82 35.5v443q-70 20 -164 20q-63 0 -105 -8t-87 -35t-66.5 -86.5t-21.5 -153.5zM676 578q217 -39 344 -39q72 0 133 12q8 76 8 158q-2 141 -43 206.5t-147 65.5q-41 0 -72 -5t-72 -28.5t-68.5 -63.5t-51 -118.5t-31.5 -187.5z" />
<glyph unicode="&#xe7;" horiz-adv-x="708" d="M96 489q0 141 23.5 246t58.5 163t88 92t99.5 44t103.5 10q66 0 119 -22.5t53 -50.5q0 -25 -14 -45q-68 55 -170 55q-57 0 -101.5 -16.5t-91.5 -63.5t-73.5 -153.5t-26.5 -266.5q0 -135 18.5 -225t54 -135t78.5 -61.5t105 -16.5q135 0 211 76q12 -20 12 -45 q0 -29 -61.5 -59.5t-151.5 -34.5l-20 -105q10 4 36 4q39 0 69 -27.5t30 -80.5q0 -76 -40 -110t-93 -34q-25 0 -50.5 4t-37.5 9l-15 2q4 41 17 53q10 4 19 2t29.5 -8t37.5 -6q76 0 75 75q0 74 -73 74l-74 -12l33 162q-63 4 -109.5 24.5t-86.5 73.5t-60.5 155t-20.5 254z" />
<glyph unicode="&#xe8;" horiz-adv-x="790" d="M92 453q0 156 23.5 268.5t58.5 172.5t87 96t96 45t102 9q256 0 256 -321q0 -139 -15 -227q-188 -37 -477 -37h-63v-10q0 -106 14 -181t36.5 -118.5t60.5 -67t76 -30.5t91 -7q160 0 258 76q10 -27 11 -51q0 -29 -84 -59.5t-189 -30.5q-82 0 -137 16t-105.5 62t-75 144.5 t-24.5 250.5zM160 520q342 0 481 31q8 76 8 149q-4 141 -45 211t-145 70q-57 0 -97 -12.5t-89.5 -54.5t-78 -141t-34.5 -253zM215 1438q14 59 35 59q2 0 140 -116.5t142 -123.5q-20 -41 -26 -40q-2 0 -144.5 108.5t-146.5 112.5z" />
<glyph unicode="&#xe9;" horiz-adv-x="790" d="M92 453q0 156 23.5 268.5t58.5 172.5t87 96t96 45t102 9q256 0 256 -321q0 -139 -15 -227q-188 -37 -477 -37h-63v-10q0 -106 14 -181t36.5 -118.5t60.5 -67t76 -30.5t91 -7q160 0 258 76q10 -27 11 -51q0 -29 -84 -59.5t-189 -30.5q-82 0 -137 16t-105.5 62t-75 144.5 t-24.5 250.5zM160 520q342 0 481 31q8 76 8 149q-4 141 -45 211t-145 70q-57 0 -97 -12.5t-89.5 -54.5t-78 -141t-34.5 -253zM375 1241q57 55 127.5 115.5t111.5 93.5t43 33q14 0 35 -60q-6 -6 -45 -37.5t-110.5 -86t-135.5 -99.5z" />
<glyph unicode="&#xea;" horiz-adv-x="790" d="M92 453q0 156 23.5 268.5t58.5 172.5t87 96t96 45t102 9q256 0 256 -321q0 -139 -15 -227q-188 -37 -477 -37h-63v-10q0 -106 14 -181t36.5 -118.5t60.5 -67t76 -30.5t91 -7q160 0 258 76q10 -27 11 -51q0 -29 -84 -59.5t-189 -30.5q-82 0 -137 16t-105.5 62t-75 144.5 t-24.5 250.5zM160 520q342 0 481 31q8 76 8 149q-4 141 -45 211t-145 70q-57 0 -97 -12.5t-89.5 -54.5t-78 -141t-34.5 -253zM203 1235l225 217q8 4 21 4q16 0 30 -16q199 -197 199 -203q0 -2 -7 -10t-21.5 -16.5t-28.5 -8.5q-170 180 -175 189q-178 -186 -194 -187 q-39 0 -49 31z" />
<glyph unicode="&#xeb;" horiz-adv-x="790" d="M92 453q0 156 23.5 268.5t58.5 172.5t87 96t96 45t102 9q256 0 256 -321q0 -139 -15 -227q-188 -37 -477 -37h-63v-10q0 -106 14 -181t36.5 -118.5t60.5 -67t76 -30.5t91 -7q160 0 258 76q10 -27 11 -51q0 -29 -84 -59.5t-189 -30.5q-82 0 -137 16t-105.5 62t-75 144.5 t-24.5 250.5zM160 520q342 0 481 31q8 76 8 149q-4 141 -45 211t-145 70q-57 0 -97 -12.5t-89.5 -54.5t-78 -141t-34.5 -253zM240 1348q0 27 16 47t45 20q31 0 49.5 -19.5t18.5 -47.5q0 -31 -19.5 -50.5t-48.5 -19.5q-61 0 -61 70zM526 1348q0 27 16.5 47t45.5 20 q31 0 48 -19.5t17 -47.5q0 -31 -18.5 -50.5t-46.5 -19.5q-62 0 -62 70z" />
<glyph unicode="&#xec;" horiz-adv-x="342" d="M-61 1438q14 59 34 59q2 0 140.5 -116.5t142.5 -123.5q-20 -41 -27 -40q-2 0 -144 108.5t-146 112.5zM135 0v987q0 25 14.5 31t57.5 6v-1001q0 -16 -9.5 -19.5t-62.5 -3.5z" />
<glyph unicode="&#xed;" horiz-adv-x="342" d="M98 1241q57 55 128 115.5t112 93.5t43 33q14 0 35 -60q-6 -6 -45 -37.5t-111 -86t-135 -99.5zM135 0v987q0 25 14.5 31t57.5 6v-1001q0 -16 -9.5 -19.5t-62.5 -3.5z" />
<glyph unicode="&#xee;" horiz-adv-x="342" d="M-74 1235l226 217q8 4 20 4q16 0 31 -16q199 -197 198 -203q0 -2 -7 -10t-21.5 -16.5t-28.5 -8.5q-170 180 -174 189q-178 -186 -195 -187q-39 0 -49 31zM135 0v987q0 25 14.5 31t57.5 6v-1001q0 -16 -9.5 -19.5t-62.5 -3.5z" />
<glyph unicode="&#xef;" horiz-adv-x="342" d="M-35 1348q0 27 16.5 47t45.5 20q31 0 49 -19.5t18 -47.5q0 -31 -19.5 -50.5t-47.5 -19.5q-62 0 -62 70zM135 0v987q0 25 14.5 31t57.5 6v-1001q0 -16 -9.5 -19.5t-62.5 -3.5zM252 1348q0 27 16.5 47t44.5 20q31 0 48.5 -19.5t17.5 -47.5q0 -31 -18.5 -50.5t-47.5 -19.5 q-61 0 -61 70z" />
<glyph unicode="&#xf0;" horiz-adv-x="913" d="M96 524q0 254 94.5 385t274.5 131q172 0 262 -116q-53 225 -199 391l-194 -78q-14 39 -15.5 49t13.5 21l147 59q-53 53 -145 121q10 35 43 35q18 0 31 -13q74 -53 137 -116l168 67q16 -41 17 -51t-13 -18l-123 -50q236 -274 235 -749q0 -133 -13 -231.5t-50 -190.5 t-111.5 -141t-187.5 -49q-184 0 -277.5 130.5t-93.5 413.5zM164 520q0 -477 303 -477q63 0 112.5 21.5t81 63.5t52 92t31 120t14.5 130t4 140q0 100 -12 193q-100 174 -277 174q-147 0 -228 -116t-81 -341z" />
<glyph unicode="&#xf1;" horiz-adv-x="851" d="M131 0v971q170 74 336 73q160 0 218 -68.5t58 -219.5v-733q0 -16 -9 -19.5t-60 -3.5v741q0 131 -42 185.5t-165 54.5q-156 0 -270 -57v-901q0 -16 -8.5 -19.5t-57.5 -3.5zM172 1278q45 76 88 101.5t102 25.5q49 0 99.5 -55.5t95.5 -55.5q49 0 82 26t48 51.5t22 25.5 q8 0 17 -10.5t13 -18.5l4 -10q-66 -131 -190 -131q-53 0 -89 29.5t-61.5 59.5t-54.5 30q-37 0 -66.5 -26t-46 -52.5t-22.5 -26.5z" />
<glyph unicode="&#xf2;" horiz-adv-x="811" d="M76 508q0 537 342 536q166 0 241.5 -115.5t75.5 -418.5q0 -530 -340 -530q-80 0 -132 18t-98 71.5t-67.5 162t-21.5 276.5zM145 496q0 -260 61.5 -356.5t190.5 -96.5q127 0 198 118t71 355q0 266 -61.5 365.5t-188.5 99.5q-131 0 -201 -112.5t-70 -372.5zM186 1438 q14 59 35 59q2 0 140.5 -116.5t142.5 -123.5q-20 -41 -27 -40q-2 0 -144.5 108.5t-146.5 112.5z" />
<glyph unicode="&#xf3;" horiz-adv-x="811" d="M76 508q0 537 342 536q166 0 241.5 -115.5t75.5 -418.5q0 -530 -340 -530q-80 0 -132 18t-98 71.5t-67.5 162t-21.5 276.5zM145 496q0 -260 61.5 -356.5t190.5 -96.5q127 0 198 118t71 355q0 266 -61.5 365.5t-188.5 99.5q-131 0 -201 -112.5t-70 -372.5zM346 1241 q57 55 128 115.5t112 93.5t43 33q14 0 35 -60q-6 -6 -45 -37.5t-111 -86t-135 -99.5z" />
<glyph unicode="&#xf4;" horiz-adv-x="811" d="M76 508q0 537 342 536q166 0 241.5 -115.5t75.5 -418.5q0 -530 -340 -530q-80 0 -132 18t-98 71.5t-67.5 162t-21.5 276.5zM145 496q0 -260 61.5 -356.5t190.5 -96.5q127 0 198 118t71 355q0 266 -61.5 365.5t-188.5 99.5q-131 0 -201 -112.5t-70 -372.5zM174 1235 l225 217q8 4 21 4q16 0 31 -16q199 -197 198 -203q0 -2 -7 -10t-21.5 -16.5t-28.5 -8.5q-170 180 -174 189q-178 -186 -195 -187q-39 0 -49 31z" />
<glyph unicode="&#xf5;" horiz-adv-x="811" d="M76 508q0 537 342 536q166 0 241.5 -115.5t75.5 -418.5q0 -530 -340 -530q-80 0 -132 18t-98 71.5t-67.5 162t-21.5 276.5zM131 1278q45 76 88 101.5t103 25.5q49 0 99 -55.5t95 -55.5q49 0 82 26t48.5 51.5t21.5 25.5q8 0 17 -10.5t13 -18.5l4 -10q-66 -131 -190 -131 q-53 0 -89 29.5t-61.5 59.5t-54.5 30q-37 0 -66.5 -26t-46 -52.5t-22.5 -26.5zM145 496q0 -260 61.5 -356.5t190.5 -96.5q127 0 198 118t71 355q0 266 -61.5 365.5t-188.5 99.5q-131 0 -201 -112.5t-70 -372.5z" />
<glyph unicode="&#xf6;" horiz-adv-x="811" d="M76 508q0 537 342 536q166 0 241.5 -115.5t75.5 -418.5q0 -530 -340 -530q-80 0 -132 18t-98 71.5t-67.5 162t-21.5 276.5zM145 496q0 -260 61.5 -356.5t190.5 -96.5q127 0 198 118t71 355q0 266 -61.5 365.5t-188.5 99.5q-131 0 -201 -112.5t-70 -372.5zM213 1348 q0 27 16.5 47t44.5 20q31 0 49.5 -19.5t18.5 -47.5q0 -31 -19.5 -50.5t-48.5 -19.5q-61 0 -61 70zM500 1348q0 27 16 47t45 20q31 0 48.5 -19.5t17.5 -47.5q0 -31 -18.5 -50.5t-47.5 -19.5q-61 0 -61 70z" />
<glyph unicode="&#xf7;" d="M98 543q0 45 3 56t20 11h694q0 -45 -3 -56t-19 -11h-695zM385 303q0 29 17.5 48.5t46.5 19.5q31 0 48 -19.5t17 -48.5q0 -31 -18.5 -50.5t-46.5 -19.5q-64 0 -64 70zM385 840q0 29 17.5 48t46.5 19q31 0 48 -19.5t17 -47.5q0 -31 -18.5 -50.5t-46.5 -19.5q-64 0 -64 70z " />
<glyph unicode="&#xf8;" horiz-adv-x="888" d="M78 -6q0 2 94 156q-45 125 -45 358q0 537 338 536q158 0 229 -100l78 125q45 -10 45 -33q0 -4 -90 -149q57 -127 57 -377q0 -264 -85 -397t-240 -133q-188 0 -258 110q-12 -20 -33 -53t-33 -53l-14 -23q-4 0 -13.5 2t-19.5 10.5t-10 20.5zM197 496q0 -190 32 -289 l418 684q-55 90 -180 90q-131 0 -200.5 -112.5t-69.5 -372.5zM252 147q55 -104 197 -104q127 0 196.5 118t69.5 355q0 209 -41 320q-303 -503 -422 -689z" />
<glyph unicode="&#xf9;" horiz-adv-x="894" d="M141 369v632q0 16 8.5 19.5t59.5 3.5v-668q0 -182 50 -247.5t196 -65.5q133 0 231 55v903q0 16 10.5 19.5t57.5 3.5v-977q-137 -68 -314 -67q-174 0 -236.5 85t-62.5 304zM223 1438q14 59 35 59q2 0 140.5 -116.5t142.5 -123.5q-20 -41 -27 -40q-2 0 -144.5 108.5 t-146.5 112.5z" />
<glyph unicode="&#xfa;" horiz-adv-x="894" d="M141 369v632q0 16 8.5 19.5t59.5 3.5v-668q0 -182 50 -247.5t196 -65.5q133 0 231 55v903q0 16 10.5 19.5t57.5 3.5v-977q-137 -68 -314 -67q-174 0 -236.5 85t-62.5 304zM383 1241q57 55 128 115.5t112 93.5t43 33q14 0 34 -60q-6 -6 -45 -37.5t-110.5 -86t-134.5 -99.5 z" />
<glyph unicode="&#xfb;" horiz-adv-x="894" d="M141 369v632q0 16 8.5 19.5t59.5 3.5v-668q0 -182 50 -247.5t196 -65.5q133 0 231 55v903q0 16 10.5 19.5t57.5 3.5v-977q-137 -68 -314 -67q-174 0 -236.5 85t-62.5 304zM213 1235l225 217q8 4 21 4q16 0 30 -16q199 -197 199 -203q0 -2 -7 -10t-21.5 -16.5t-28.5 -8.5 q-170 180 -174 189q-178 -186 -195 -187q-39 0 -49 31z" />
<glyph unicode="&#xfc;" horiz-adv-x="894" d="M141 369v632q0 16 8.5 19.5t59.5 3.5v-668q0 -182 50 -247.5t196 -65.5q133 0 231 55v903q0 16 10.5 19.5t57.5 3.5v-977q-137 -68 -314 -67q-174 0 -236.5 85t-62.5 304zM250 1348q0 27 16.5 47t44.5 20q31 0 49.5 -19.5t18.5 -47.5q0 -31 -19.5 -50.5t-48.5 -19.5 q-61 0 -61 70zM537 1348q0 27 16 47t45 20q31 0 48.5 -19.5t17.5 -47.5q0 -31 -18.5 -50.5t-47.5 -19.5q-61 0 -61 70z" />
<glyph unicode="&#xfd;" horiz-adv-x="780" d="M12 -350q0 29 19 43q49 -25 116 -25q147 0 220 299l-281 1032q-6 18 2 21.5t59 3.5l191 -696l63 -285q23 143 60 287l174 669q4 18 13 21.5t63 3.5l-287 -1094q-47 -176 -114.5 -250.5t-162.5 -74.5q-135 0 -135 45zM334 1241q57 55 127.5 115.5t111.5 93.5t43 33 q14 0 35 -60q-6 -6 -45 -37.5t-110.5 -86t-135.5 -99.5z" />
<glyph unicode="&#xfe;" horiz-adv-x="845" d="M135 -387v1855q0 27 12.5 32t55.5 5v-506q94 43 225 43q170 0 255 -100t85 -350q0 -154 -27.5 -270.5t-68.5 -179t-96.5 -101.5t-97.5 -49t-87 -10q-127 0 -188 73v-461q-12 -4 -37 -4q-18 0 -24.5 4.5t-6.5 18.5zM203 137q61 -92 178 -92q35 0 70.5 10.5t83 44t81 89 t58 156.5t24.5 235q0 225 -67.5 312t-200.5 87q-129 0 -227 -64v-778z" />
<glyph unicode="&#xff;" horiz-adv-x="780" d="M12 -350q0 29 19 43q49 -25 116 -25q147 0 220 299l-281 1032q-6 18 2 21.5t59 3.5l191 -696q6 -25 63 -283q25 147 60 285l174 669q4 18 13 21.5t63 3.5l-287 -1094q-47 -176 -114.5 -250.5t-162.5 -74.5q-135 0 -135 45zM201 1348q0 27 16 47t45 20q31 0 49.5 -19.5 t18.5 -47.5q0 -31 -19.5 -50.5t-48.5 -19.5q-61 0 -61 70zM487 1348q0 27 16.5 47t45.5 20q31 0 48 -19.5t17 -47.5q0 -31 -18 -50.5t-47 -19.5q-62 0 -62 70z" />
<glyph unicode="&#x152;" horiz-adv-x="1347" d="M92 727q0 387 94.5 557t294.5 170q211 0 287 -192v149q0 23 23 23h485q0 -45 -2 -55.5t-12 -10.5h-431v-551h404q0 -63 -18 -63h-386v-688h449q0 -66 -20 -66h-492v197q-43 -115 -116.5 -166t-188.5 -51q-199 0 -285 164.5t-86 582.5zM162 700q0 -354 70.5 -503.5 t230.5 -149.5q166 0 232.5 152.5t66.5 533.5q0 367 -61.5 511.5t-217.5 144.5q-166 0 -243.5 -159t-77.5 -530z" />
<glyph unicode="&#x153;" horiz-adv-x="1392" d="M94 508q0 537 338 536q117 0 187.5 -54t105.5 -183q25 80 61.5 131t85 72.5t87 27.5t94.5 6q256 0 256 -311q0 -150 -15 -237q-188 -37 -477 -37h-63v-10q0 -133 19.5 -218.5t61.5 -123t85 -50t110 -12.5q162 0 260 76q10 -27 10 -66q0 -12 -36.5 -29.5t-102 -31.5 t-133.5 -14q-129 0 -206 44t-111 177q-78 -221 -285 -221q-86 0 -140.5 18t-101.5 71.5t-68.5 161t-21.5 277.5zM164 496q0 -260 61.5 -356.5t190.5 -96.5q123 0 193.5 111.5t74.5 337.5v24q0 266 -61.5 365.5t-188.5 99.5q-131 0 -200.5 -112.5t-69.5 -372.5zM754 520 q342 0 481 31q8 76 8 158q-4 141 -45 206.5t-147 65.5q-47 0 -77 -4t-74 -28.5t-70.5 -71t-49 -137.5t-26.5 -220z" />
<glyph unicode="&#x178;" horiz-adv-x="733" d="M12 1421q-4 10 11 11q10 2 63 2l115 -301q33 -84 74.5 -201t68.5 -197t27 -84q0 18 170 482l106 286q2 10 12.5 12.5t63.5 2.5l-320 -850v-561q0 -16 -8 -19.5t-59 -3.5v588zM168 1757q0 27 16.5 47.5t44.5 20.5q31 0 49.5 -19.5t18.5 -48.5q0 -31 -19.5 -50t-48.5 -19 q-61 -1 -61 69zM455 1757q0 27 16 47.5t45 20.5q31 0 48.5 -19.5t17.5 -48.5q0 -31 -18.5 -50t-47.5 -19q-61 -1 -61 69z" />
<glyph unicode="&#x2c6;" horiz-adv-x="475" d="M0 1235l225 217q8 4 21 4q16 0 30 -16q199 -197 199 -203q0 -2 -7 -10t-21.5 -16.5t-28.5 -8.5q-170 180 -174 189q-178 -186 -195 -187q-39 0 -49 31z" />
<glyph unicode="&#x2dc;" horiz-adv-x="571" d="M0 1278q45 76 88 101.5t102 25.5q49 0 99.5 -55.5t95.5 -55.5q49 0 82 26t48 51.5t22 25.5q8 0 17 -10.5t13 -18.5l4 -10q-66 -131 -190 -131q-53 0 -89 29.5t-61.5 59.5t-54.5 30q-37 0 -66.5 -26t-46 -52.5t-22.5 -26.5z" />
<glyph unicode="&#x2000;" horiz-adv-x="976" />
<glyph unicode="&#x2001;" horiz-adv-x="1953" />
<glyph unicode="&#x2002;" horiz-adv-x="976" />
<glyph unicode="&#x2003;" horiz-adv-x="1953" />
<glyph unicode="&#x2004;" horiz-adv-x="651" />
<glyph unicode="&#x2005;" horiz-adv-x="487" />
<glyph unicode="&#x2006;" horiz-adv-x="325" />
<glyph unicode="&#x2007;" horiz-adv-x="325" />
<glyph unicode="&#x2008;" horiz-adv-x="243" />
<glyph unicode="&#x2009;" horiz-adv-x="389" />
<glyph unicode="&#x200a;" horiz-adv-x="108" />
<glyph unicode="&#x2010;" horiz-adv-x="614" d="M98 543q0 45 3 56t20 11h395q0 -45 -3 -56t-19 -11h-396z" />
<glyph unicode="&#x2011;" horiz-adv-x="614" d="M98 543q0 45 3 56t20 11h395q0 -45 -3 -56t-19 -11h-396z" />
<glyph unicode="&#x2012;" horiz-adv-x="614" d="M98 543q0 45 3 56t20 11h395q0 -45 -3 -56t-19 -11h-396z" />
<glyph unicode="&#x2013;" horiz-adv-x="913" d="M98 543q0 45 3 56t20 11h694q0 -45 -3 -56t-19 -11h-695z" />
<glyph unicode="&#x2014;" horiz-adv-x="1433" d="M12 543q0 45 3 56t20 11h1386q0 -45 -3 -56t-19 -11h-1387z" />
<glyph unicode="&#x2018;" horiz-adv-x="299" d="M84 1270q0 86 38 215t60 129q10 0 20.5 -9.5t12.5 -19.5q-47 -111 -43 -262q33 -18 33 -66q0 -29 -16.5 -46t-45.5 -17q-31 0 -45 16.5t-14 59.5z" />
<glyph unicode="&#x2019;" horiz-adv-x="299" d="M84 1204q47 111 43 262q-33 23 -33 66q0 29 17.5 47t44.5 18q61 0 61 -77q0 -84 -39 -213t-61 -129q-29 -1 -33 26z" />
<glyph unicode="&#x201a;" horiz-adv-x="299" d="M84 -199q47 111 43 262q-33 23 -33 66q0 29 17.5 47.5t44.5 18.5q61 0 61 -78q0 -84 -39 -214t-61 -130q-10 0 -20.5 9t-12.5 19z" />
<glyph unicode="&#x201c;" horiz-adv-x="563" d="M84 1270q0 86 38 215t60 129q10 0 20.5 -9.5t12.5 -19.5q-47 -111 -43 -262q33 -18 33 -66q0 -29 -16.5 -46t-45.5 -17q-31 0 -45 16.5t-14 59.5zM348 1270q0 86 38 215t60 129q10 0 20.5 -9.5t12.5 -19.5q-47 -111 -43 -262q33 -18 33 -66q0 -29 -16.5 -46t-44.5 -17 q-31 0 -45.5 16.5t-14.5 59.5z" />
<glyph unicode="&#x201d;" horiz-adv-x="563" d="M84 1204q47 111 43 262q-33 23 -33 66q0 29 17.5 47t44.5 18q61 0 61 -77q0 -84 -39 -213t-61 -129q-29 -1 -33 26zM348 1204q47 111 43 262q-33 23 -33 66q0 29 17.5 47t44.5 18q31 0 45 -16t14 -61q0 -84 -38 -213t-60 -129q-29 -1 -33 26z" />
<glyph unicode="&#x201e;" horiz-adv-x="563" d="M84 -199q47 111 43 262q-33 23 -33 66q0 29 17.5 47.5t44.5 18.5q61 0 61 -78q0 -84 -39 -214t-61 -130q-10 0 -20.5 9t-12.5 19zM348 -199q47 111 43 262q-33 23 -33 66q0 29 17.5 47.5t44.5 18.5q31 0 45 -16.5t14 -61.5q0 -84 -38 -214t-60 -130q-10 0 -20.5 9 t-12.5 19z" />
<glyph unicode="&#x2022;" horiz-adv-x="419" d="M123 575q0 47 27.5 79t72.5 32q47 0 77 -31.5t30 -79.5q0 -49 -30 -81.5t-77 -32.5t-73.5 31.5t-26.5 82.5z" />
<glyph unicode="&#x2026;" horiz-adv-x="940" d="M102 63q0 29 17.5 49.5t46.5 20.5q31 0 50.5 -20.5t19.5 -49.5q0 -31 -19.5 -51t-50.5 -20q-64 -1 -64 71zM403 63q0 29 17.5 49.5t46.5 20.5q31 0 50.5 -20.5t19.5 -49.5q0 -31 -19.5 -51t-50.5 -20q-64 -1 -64 71zM702 63q0 29 17.5 49.5t46.5 20.5q31 0 50.5 -20.5 t19.5 -49.5q0 -31 -19.5 -51t-50.5 -20q-64 -1 -64 71z" />
<glyph unicode="&#x202f;" horiz-adv-x="389" />
<glyph unicode="&#x2039;" horiz-adv-x="542" d="M76 512q0 16 76.5 144t154.5 249l78 119q12 0 22.5 -8t14.5 -17l6 -10q0 -35 -287 -477q295 -440 295 -467q-16 -45 -37 -45q-323 469 -323 512z" />
<glyph unicode="&#x203a;" horiz-adv-x="542" d="M104 45q0 10 74 127t148 229l73 111q-285 442 -284 477q0 10 10 19.5t22 11.5l11 4q309 -473 309 -512q0 -18 -80 -146t-162 -247l-80 -119q-41 8 -41 45z" />
<glyph unicode="&#x205f;" horiz-adv-x="487" />
<glyph unicode="&#x20ac;" d="M53 451q0 35 6.5 47t28.5 12h154v37q0 119 8 198h-197q0 35 6.5 47.5t28.5 12.5h168q18 137 58 228t95.5 133t106.5 57.5t115 15.5q55 0 101 -16.5t67.5 -34t21.5 -25.5q0 -37 -18 -47q-70 57 -162 58q-53 0 -94 -11.5t-87 -46.5t-80 -113.5t-50 -197.5h366 q0 -35 -6 -47.5t-26 -12.5h-342q-8 -80 -9 -204v-31h301q0 -35 -6 -47t-28 -12h-265q6 -133 33 -219.5t72 -124t86 -49t98 -11.5q61 0 121.5 26.5t91.5 63.5q16 -27 17 -51q0 -27 -76 -66.5t-162 -39.5q-47 0 -83 5t-77 21.5t-70.5 49t-57 82.5t-44 130t-20.5 183h-191z" />
<glyph unicode="&#x2122;" horiz-adv-x="1128" d="M78 1380v33l20 21h437v-33l-21 -21h-172v-575q0 -14 -7 -16.5t-46 -2.5v594h-211zM582 786v627q0 20 20 21h29l114 -306l58 -139q47 129 49 135l111 289q0 20 20 21h35v-627q0 -16 -7 -18.5t-48 -2.5v238q0 4 1 47t2 105.5t1 93.5q-10 -29 -26.5 -70t-27.5 -65l-8 -23 l-76 -197q-6 -10 -12 -10h-43l-80 207l-59 150v-79q0 -58 1 -108.5t1 -52.5v-215q0 -16 -7 -18.5t-48 -2.5z" />
<glyph unicode="&#xe000;" horiz-adv-x="1025" d="M0 1025h1025v-1025h-1025v1025z" />
<glyph unicode="&#xfb01;" horiz-adv-x="802" d="M23 961q0 45 3 54t21 9h143v135q0 96 21.5 166t52.5 105.5t79 56t86 25t91 4.5q82 0 133.5 -15.5t51.5 -38.5q0 -10 -11 -41q-80 29 -176 29q-53 0 -91 -8t-81 -36t-65.5 -91.5t-22.5 -161.5v-129h199q0 -45 -3 -54t-20 -9h-176v-938q0 -23 -22 -23h-46v961h-167zM602 0 v987q0 27 12.5 32t55.5 5v-1001q0 -16 -8.5 -19.5t-59.5 -3.5z" />
<glyph unicode="&#xfb02;" horiz-adv-x="823" d="M20 961q0 45 3.5 54t21.5 9h143v135q0 119 29 196t80 107.5t91 39.5t93 9q119 0 207 -45v-1443q0 -23 -22 -23h-45v1425q-61 23 -138 23q-37 0 -57 -2t-57 -17.5t-58.5 -43t-38 -86t-16.5 -142.5v-133h238q0 -45 -3.5 -54t-19.5 -9h-215v-938q0 -23 -23 -23h-45v961h-168 z" />
<glyph unicode="&#xfb03;" horiz-adv-x="1277" d="M37 961q0 45 3 54t19 9h146v158q0 88 24.5 152.5t57 96t83 50t81 21.5t71.5 3q119 0 217 -69q76 80 250 80q84 0 134.5 -15.5t50.5 -38.5q0 -10 -11 -41q-80 29 -176 29q-53 0 -91 -8t-81 -36t-65.5 -91.5t-22.5 -161.5v-129h199q0 -45 -3 -54t-20 -9h-176v-938 q0 -23 -22 -23h-46v961h-387v-938q0 -23 -22 -23h-45v961h-168zM272 1024h387v135q0 139 43 221q-76 61 -192 62q-41 0 -71.5 -6t-73.5 -30t-68 -81t-25 -147v-154zM1071 0v987q0 27 12.5 32t55.5 5v-1001q0 -16 -8.5 -19.5t-59.5 -3.5z" />
<glyph unicode="&#xfb04;" horiz-adv-x="1296" d="M37 961q0 45 3 54t19 9h146v158q0 88 24.5 152.5t57 96t83 50t81 21.5t71.5 3q113 0 213 -67q66 76 217 75q121 0 207 -45v-1445q0 -16 -8 -19.5t-59 -3.5v1425q-61 23 -138 23q-53 0 -82.5 -6t-68.5 -29.5t-57.5 -85t-18.5 -160.5v-143h199q0 -45 -3 -54t-20 -9h-176 v-938q0 -23 -22 -23h-46v961h-387v-938q0 -23 -22 -23h-45v961h-168zM272 1024h387v135q0 141 39 225q-72 57 -188 58q-41 0 -71.5 -6t-73.5 -30t-68 -81t-25 -147v-154z" />
</font>
</defs>
</svg>
